<?xml version="1.0" standalone="no"?>
<!DOCTYPE svg PUBLIC "-//W3C//DTD SVG 1.1//EN" "http://www.w3.org/Graphics/SVG/1.1/DTD/svg11.dtd" >
<svg xmlns="http://www.w3.org/2000/svg" xmlns:xlink="http://www.w3.org/1999/xlink" version="1.1">
<metadata>
Created by FontForge 20170731 at Thu Mar 16 13:03:01 2023
 By Aleksey,,,
Copyright (c) 2005-2010 by Jovanny Lemonad. All rights reserved.
</metadata>
<defs>
<font id="Neucha" horiz-adv-x="915" >
  <font-face 
    font-family="Neucha"
    font-weight="400"
    font-stretch="normal"
    units-per-em="2048"
    panose-1="2 0 5 6 5 0 0 2 0 4"
    ascent="1638"
    descent="-410"
    x-height="1026"
    cap-height="1462"
    bbox="-164 -592 2140 1962"
    underline-thickness="102"
    underline-position="-307"
    unicode-range="U+0020-2122"
  />
<missing-glyph horiz-adv-x="1024" 
 />
    <glyph glyph-name=".notdef" horiz-adv-x="1024" 
 />
    <glyph glyph-name=".null" horiz-adv-x="0" 
 />
    <glyph glyph-name="nonmarkingreturn" horiz-adv-x="682" 
 />
    <glyph glyph-name="space" unicode=" " horiz-adv-x="573" 
 />
    <glyph glyph-name="exclam" unicode="!" horiz-adv-x="372" 
d="M223 344l-90 21q-12 156 -20.5 325.5t-17 395t-13.5 325.5q4 39 24 59.5t46 20.5q39 0 73 -34.5t37 -84.5q-5 -100 -13.5 -465t-25.5 -563zM164 231q55 0 91 -46.5t36 -106.5q0 -42 -21 -70t-57 -28q-56 0 -88.5 46t-32.5 107q0 42 19.5 70t52.5 28z" />
    <glyph glyph-name="quotedbl" unicode="&#x22;" horiz-adv-x="532" 
d="M176 1055l-90 20l-45 324q4 39 24 59.5t46 20.5q39 0 73 -34.5t37 -84.5zM446 1055l-90 20l-45 324q4 39 24 59.5t46 20.5q39 0 73.5 -34.5t37.5 -84.5z" />
    <glyph glyph-name="numbersign" unicode="#" horiz-adv-x="1245" 
d="M20 485l-20 90l272 13l80 282h-186q-41 9 -70.5 42t-29.5 69q0 51 61 70q158 -18 272 -25q94 322 129 408h123q-62 -160 -133 -416q176 -12 344 -21q106 361 139 443h123q-61 -154 -141 -449l242 -16l20 -90q-122 -10 -295 -17l-67 -254l127 7q50 -3 84 -37.5t34 -73.5
q0 -27 -20 -46.5t-59 -23.5q-99 3 -207 9q-83 -327 -117 -433q-27 -10 -76 -10h-69q12 37 129 449l-334 14q-108 -413 -123 -459q-27 -10 -76 -10h-70q13 34 136 475zM477 864l-71 -270l346 14q46 172 71 258q-117 -2 -346 -2z" />
    <glyph glyph-name="dollar" unicode="$" horiz-adv-x="956" 
d="M428 1659l90 -21l10 -118q157 -32 332 -115l-24 -82q-182 60 -297 74q18 -277 30 -559q105 -40 185 -123.5t120.5 -184t40.5 -202.5q0 -145 -89.5 -239.5t-235.5 -98.5q0 -14 1 -40t1 -40q-19 -62 -70 -62q-35 0 -68 30t-42 71q0 17 4 53q-105 15 -200.5 46.5
t-139.5 66.5l28 110q166 -86 318 -92q11 220 14 584q-191 52 -293 174t-102 266q0 91 44 177.5t125 144t177 57.5q29 0 43 -2q0 22 -1 63.5t-1 61.5zM434 1401q-88 0 -150.5 -64.5t-62.5 -156.5q0 -88 55.5 -169t161.5 -130q0 184 -4 520zM588 152q73 30 111 71t38 115
q0 82 -41.5 171t-107.5 146v-503z" />
    <glyph glyph-name="percent" unicode="%" horiz-adv-x="1349" 
d="M1090 1546l106 -71q-37 -82 -238 -404.5t-400.5 -646.5t-238.5 -420q-28 -35 -69 -35q-38 0 -68 32t-30 73q0 23 12 47q93 115 442 648t484 777zM707 270q0 82 45.5 162t123.5 132t164 52q119 0 214.5 -99t95.5 -222q0 -135 -88 -239.5t-222 -104.5q-83 0 -158.5 38.5
t-125 113t-49.5 167.5zM1038 485q-78 0 -143.5 -63t-65.5 -143q0 -81 62.5 -137t146.5 -56q82 0 138.5 60.5t56.5 146.5q0 73 -59.5 132.5t-135.5 59.5zM0 1247q0 82 45.5 162.5t124 132t164.5 51.5q118 0 213.5 -99t95.5 -222q0 -135 -87.5 -239.5t-221.5 -104.5
q-83 0 -159 38.5t-125.5 113t-49.5 167.5zM332 1462q-78 0 -143.5 -63.5t-65.5 -143.5q0 -81 62 -136.5t147 -55.5q82 0 138 60.5t56 146.5q0 73 -59 132.5t-135 59.5z" />
    <glyph glyph-name="ampersand" unicode="&#x26;" horiz-adv-x="1140" 
d="M877 1069l100 -6q5 -40 8.5 -80t7.5 -94t8 -94q1 0 40 2t57 2t18 -2q25 -50 25 -123v-12h-125q6 -53 6 -103q0 -231 -123.5 -381.5t-374.5 -177.5q-50 0 -104 9.5t-120 37.5t-118.5 72t-92.5 120.5t-48 174.5q0 110 44.5 205.5t133.5 146.5q-147 112 -147 270
q0 151 125 253t292 102q121 0 201 -31l-31 -76q-52 8 -118 8q-61 0 -115.5 -13.5t-101.5 -41t-75 -77.5t-28 -116q0 -54 19 -97t53.5 -71t76 -47.5t93.5 -29.5t98.5 -14.5t97.5 -4.5q39 0 117.5 3t116.5 3q-13 119 -16 283zM889 659l-508 23q-170 -128 -170 -254
q0 -107 95 -192.5t214 -94.5q79 0 151.5 42t120.5 107.5t76.5 143.5t28.5 152q0 42 -8 73z" />
    <glyph glyph-name="quotesingle" unicode="'" horiz-adv-x="262" 
d="M176 1055l-90 20l-45 324q4 39 24 59.5t46 20.5q39 0 73 -34.5t37 -84.5z" />
    <glyph glyph-name="parenleft" unicode="(" horiz-adv-x="403" 
d="M229 1524l88 -27q-108 -501 -108 -776q0 -99 13.5 -201.5t30 -176.5t51.5 -221t58 -253q-1 -45 -19 -68.5t-44 -23.5q-24 0 -48.5 18t-37.5 49q-8 40 -34 157t-37.5 176.5t-28.5 156.5t-24 181.5t-7 168.5q0 160 34 353.5t113 486.5z" />
    <glyph glyph-name="parenright" unicode=")" horiz-adv-x="403" 
d="M86 1497l88 27q79 -295 113.5 -488t34.5 -352q0 -68 -6.5 -144.5t-13.5 -132t-24.5 -147.5t-25.5 -131.5t-32 -148t-30 -136.5q-13 -31 -37.5 -49t-48.5 -18q-26 0 -44 23.5t-19 68.5q23 107 58 253t52 220.5t30.5 177t13.5 201.5q0 270 -109 776z" />
    <glyph glyph-name="asterisk" unicode="*" horiz-adv-x="729" 
d="M63 1438l64 53q29 -25 101.5 -96.5t101.5 -96.5q0 41 -6.5 114t-6.5 101q0 29 2 41l91 -20q0 -35 -8 -99.5t-9 -97.5q19 19 63.5 69t84 90t69.5 60l58 -77l-95.5 -95.5t-123.5 -128.5q30 1 114.5 15t110.5 16q18 -32 28.5 -63t17 -64t9.5 -43q-31 2 -132 18.5t-130 18.5
q34 -30 130 -104.5t126 -100.5q-27 -23 -44 -34.5t-44.5 -26t-46.5 -25.5q-28 28 -88.5 117.5t-87.5 118.5q1 -14 17 -117.5t17 -118.5h-14q-69 3 -153 17l16 247q-15 -18 -77 -128.5t-101 -135.5q-28 13 -42 29.5t-34.5 56.5t-40.5 70q100 50 188 129q-22 2 -88.5 16.5
t-79.5 16.5l-20 90q3 0 11 1t12 1q29 0 111 -8.5t108 -8.5q-18 20 -86.5 85.5t-92.5 97.5z" />
    <glyph glyph-name="plus" unicode="+" horiz-adv-x="909" 
d="M356 1143l90 -21q5 -44 19 -197.5t18 -189.5l308 19q50 -3 84 -37.5t34 -73.5q0 -26 -20.5 -46t-59.5 -24q-12 1 -331 21q5 -47 19 -168t20 -203q-19 -61 -70 -61q-36 0 -69 29.5t-42 70.5q2 51 2 152q0 22 -4 186l-334 18l-20 91l350 18q-2 53 -2 162q0 139 8 254z" />
    <glyph glyph-name="comma" unicode="," horiz-adv-x="335" 
d="M43 -240l-2 64q73 26 108 57.5t35 77.5q0 15 -8 47q-28 -4 -39 -4q-38 0 -60 52t-22 98q0 42 19.5 70t52.5 28q53 0 93 -46.5t57.5 -105t17.5 -112.5q0 -95 -63 -157.5t-189 -68.5z" />
    <glyph glyph-name="hyphen" unicode="-" horiz-adv-x="866" 
d="M61 596l-20 90l666 45q50 -3 84 -37t34 -73q0 -26 -20.5 -46t-59.5 -24z" />
    <glyph glyph-name="period" unicode="." horiz-adv-x="280" 
d="M113 250q55 0 91 -47t36 -107q0 -42 -21 -70t-57 -28q-55 0 -88 46.5t-33 107.5q0 42 19.5 70t52.5 28z" />
    <glyph glyph-name="slash" unicode="/" horiz-adv-x="919" 
d="M829 1692l91 -33q-41 -143 -119.5 -335.5t-166.5 -385l-176 -385t-167.5 -387.5t-122.5 -340q-28 -35 -70 -35q-38 0 -68 32t-30 73q0 69 116 323t259 529.5t281.5 557t172.5 386.5z" />
    <glyph glyph-name="zero" unicode="0" horiz-adv-x="1036" 
d="M82 666q1 220 30 376.5t86.5 253.5t138 144t191.5 53q71 0 130.5 -28.5t102 -75.5t75.5 -114.5t54 -139t35 -156.5t20.5 -159t8.5 -154q0 -115 -28.5 -241.5t-79 -237.5t-129.5 -183t-170 -72q-110 0 -193.5 43t-134 112t-82.5 167.5t-43.5 197.5t-11.5 214zM500 1337
q-49 -9 -86.5 -31.5t-62.5 -50.5t-43 -73.5t-27 -85t-16 -101.5t-9 -107.5t-5.5 -118t-6.5 -118.5q0 -49 2.5 -96t10.5 -102t20.5 -103t33.5 -94t49 -79.5t68 -56t88 -26.5q64 0 120 52t91.5 131t55.5 168t20 169q0 67 -2 123t-9 133t-19 137t-35 123.5t-54 106t-78 70.5
t-106 30z" />
    <glyph glyph-name="one" unicode="1" horiz-adv-x="722" 
d="M92 6v107q48 7 120 20t110 19q6 144 6 290q0 92 -2 276t-2 279q0 221 6 336q-185 -106 -267 -168l-63 68q32 28 109.5 91.5t139.5 116t97 87.5q31 -4 65.5 -5t65.5 -5q12 -234 12 -850q0 -342 7 -529q173 -27 194 -30l33 -107h-173.5t-197.5 0.5t-193 1.5t-67 2z" />
    <glyph glyph-name="two" unicode="2" horiz-adv-x="811" 
d="M750 137l61 -131q-150 -4 -469 -5t-340 -1q0 18 -1 58t-1 63q34 58 102 133.5t139 143.5t149.5 158t138.5 177t99.5 200t39.5 228q0 89 -61 144t-150 55q-103 0 -191 -83.5t-121 -252.5l-90 33q4 99 40.5 179t94.5 129t127 75t142 26q140 0 240 -88t100 -245
q0 -110 -31.5 -218.5t-77 -191t-116 -173t-128 -150t-134.5 -139t-115 -122.5q70 -4 114 -4q50 0 157.5 3t158.5 3q45 0 123 -4z" />
    <glyph glyph-name="three" unicode="3" horiz-adv-x="827" 
d="M0 63l16 93q15 -3 91 -18t134.5 -23.5t104.5 -8.5q113 0 178.5 85.5t65.5 199.5q0 74 -25 140.5t-74 122t-131 88t-186 32.5q-31 0 -47 -2v98q18 -2 55 -2q86 0 157.5 14.5t130 45t91.5 84t33 125.5q0 106 -59.5 169.5t-155.5 63.5q-45 0 -96 -5t-110 -13.5t-77 -10.5
l-33 91q19 5 77.5 21.5t87 23.5t76.5 14.5t91 7.5q155 0 244.5 -106.5t89.5 -292.5q0 -118 -56.5 -194.5t-172.5 -94.5q120 -49 182.5 -157t62.5 -257q0 -79 -18 -149.5t-54.5 -130.5t-100.5 -95.5t-148 -35.5q-114 0 -232.5 23t-191.5 54z" />
    <glyph glyph-name="four" unicode="4" horiz-adv-x="880" 
d="M819 582l21 -90q-120 -15 -148 -17q3 -93 10.5 -232t10.5 -229q-19 -61 -70 -61q-36 0 -69 29.5t-42 70.5q2 74 4 136t5.5 138t5.5 136q-66 -4 -103 -4q-60 0 -185 6t-183 6q-51 0 -76 -2q4 50 4 66q0 13 -1 38.5t-1 40.5q126 212 189 314.5t160 248.5t192 271
q22 0 41.5 -1.5t39 -5t30 -5.5t32 -7.5t27.5 -7.5q-5 -94 -12 -406t-13 -423q89 -4 131 -10zM147 608l404 -12q5 112 10 337t10 339q-62 -63 -139 -187.5t-158 -268t-127 -208.5z" />
    <glyph glyph-name="five" unicode="5" horiz-adv-x="874" 
d="M795 1419l20 -90q-87 -16 -223 -16q-189 0 -240 -6q-42 -300 -78 -490q58 12 111 12q86 0 168.5 -37.5t144 -99.5t99 -147t37.5 -174q0 -172 -134 -294t-329 -122q-191 0 -371 125q8 8 21.5 41.5t30 59.5t36.5 26q14 0 27 -10q139 -105 260 -105q124 0 203 97.5t79 220.5
q0 115 -74 194.5t-218 79.5q-52 0 -99 -8q-40 21 -87.5 43t-80.5 39q41 159 62 281.5t37.5 204.5t56.5 196q68 -6 257 -6.5t284 -14.5z" />
    <glyph glyph-name="six" unicode="6" horiz-adv-x="917" 
d="M793 1448l32 -90q-466 -200 -555 -537q79 53 162 53q172 0 288 -155t116 -395q0 -173 -104.5 -274t-266.5 -101q-73 0 -141.5 28t-122.5 78t-86.5 128t-32.5 171q0 88 3 157t12 150t24.5 145t42 134.5t64 127t91 114t121.5 103.5t157 88t196 75zM225 412
q0 -167 62.5 -249.5t154.5 -82.5q98 0 170 66t72 182q0 176 -79.5 293.5t-194.5 117.5q-30 0 -54 -6t-42 -14.5t-31.5 -25.5t-23 -31.5t-16 -40.5t-10 -44.5t-5.5 -52t-2.5 -54t-0.5 -58.5z" />
    <glyph glyph-name="seven" unicode="7" horiz-adv-x="796" 
d="M248 -16l-156 47q114 274 245.5 600.5t295.5 722.5q-464 13 -633 28l-20 91q140 16 424.5 16t392.5 8l-11 -174q-387 -960 -538 -1339z" />
    <glyph glyph-name="eight" unicode="8" horiz-adv-x="1013" 
d="M932 401q0 -218 -105.5 -323t-324.5 -105q-420 0 -420 437q0 155 63.5 273t176.5 136q-77 2 -130 43.5t-76.5 104.5t-23.5 141q0 189 102 296t293 107q201 0 314.5 -100t113.5 -307q0 -122 -58 -204t-171 -85q78 -12 135 -75t84 -151t27 -188zM524 119q113 0 186.5 86.5
t73.5 206.5q0 78 -34.5 144t-105 109t-163.5 44q-121 -35 -180 -113t-59 -174q0 -119 80 -211t202 -92zM524 1403q-134 -10 -204 -87.5t-70 -180.5t66.5 -179.5t179.5 -76.5q89 1 151 36t88.5 87t26.5 114q0 99 -65 182.5t-173 104.5z" />
    <glyph glyph-name="nine" unicode="9" horiz-adv-x="897" 
d="M104 -39l-32 90q466 200 555 537q-79 -53 -162 -53q-172 0 -288 155t-116 395q0 173 104.5 274t266.5 101q73 0 141.5 -28t122.5 -78t86.5 -128t32.5 -171q0 -88 -3 -157t-12 -150t-24.5 -145t-42 -134.5t-64 -127t-91 -114t-121.5 -103.5t-157 -88t-196 -75zM672 997
q0 167 -62.5 249.5t-154.5 82.5q-98 0 -170 -66t-72 -182q0 -176 79.5 -293.5t194.5 -117.5q30 0 54 6t42 14.5t31.5 25.5t23 31.5t16 40.5t10 44.5t5.5 52t2.5 54t0.5 58.5z" />
    <glyph glyph-name="colon" unicode=":" horiz-adv-x="280" 
d="M113 244q55 0 91 -47t36 -107q0 -42 -21 -70t-57 -28q-56 0 -88.5 48t-32.5 105q0 42 19.5 70.5t52.5 28.5zM113 1014q55 0 91 -47t36 -107q0 -42 -21 -70t-57 -28q-56 0 -88.5 46t-32.5 107q0 43 19.5 71t52.5 28z" />
    <glyph glyph-name="semicolon" unicode=";" horiz-adv-x="335" 
d="M127 1014q55 0 91 -47t36 -107q0 -42 -21 -70t-57 -28q-56 0 -88.5 46t-32.5 107q0 43 19.5 71t52.5 28zM43 -246l-2 64q73 26 108 57.5t35 77.5q0 15 -8 47q-65 0 -93 36.5t-28 108.5q0 42 19.5 70.5t52.5 28.5q53 0 93 -46.5t57.5 -105t17.5 -112.5q0 -95 -63 -157.5
t-189 -68.5z" />
    <glyph glyph-name="less" unicode="&#x3c;" horiz-adv-x="1214" 
d="M1196 125l6 -129q-212 70 -313.5 105t-269 100t-313.5 137.5t-306 165.5q0 80 16 151q192 57 390.5 141.5t398 171.5t379.5 144l30 -115q-135 -57 -328.5 -152t-362.5 -172t-322 -126q112 -84 495 -236.5t500 -185.5z" />
    <glyph glyph-name="equal" unicode="=" horiz-adv-x="1218" 
d="M92 936l-20 90q190 16 537.5 25t449.5 14q50 -3 84.5 -37.5t34.5 -73.5q0 -26 -20.5 -45.5t-59.5 -23.5q-96 5 -313.5 13.5t-380 17t-312.5 20.5zM61 389l-20 90q120 10 269.5 19t226 12.5t283.5 13t239 11.5q50 -3 84.5 -37.5t34.5 -73.5q0 -26 -20.5 -46t-59.5 -24
q-121 6 -481.5 13t-555.5 22z" />
    <glyph glyph-name="greater" unicode="&#x3e;" horiz-adv-x="1214" 
d="M12 -4l6 129q117 33 500.5 185.5t495.5 236.5q-153 49 -322 126t-363 172t-329 152l31 115q180 -57 379 -144t397.5 -171.5t390.5 -141.5q16 -71 16 -151q-160 -93 -306 -165.5t-313.5 -137.5t-269 -100t-313.5 -105z" />
    <glyph glyph-name="question" unicode="?" horiz-adv-x="772" 
d="M123 1032l-90 21q-33 79 -33 149q0 122 93.5 188t228.5 66q203 0 326.5 -117t123.5 -321q0 -63 -18 -114t-47 -86.5t-64.5 -67.5t-72 -64t-67.5 -68.5t-52.5 -89.5t-26.5 -118q-19 -62 -70 -62q-37 0 -69 34t-41 93q0 62 21.5 114t56 88.5t76.5 70t83.5 67.5t76 71.5
t56 90.5t21.5 117q0 72 -48.5 128t-118.5 82.5t-144 26.5q-95 0 -159.5 -47t-64.5 -137q0 -53 23 -115zM319 242q55 0 91 -47t36 -107q0 -43 -20.5 -70.5t-56.5 -27.5q-56 0 -88.5 46t-32.5 107q0 43 19 71t52 28z" />
    <glyph glyph-name="at" unicode="@" horiz-adv-x="1605" 
d="M629 999q111 0 166 -80.5t55 -201.5q0 -45 -6 -118t-6 -75q69 -86 151 -86q76 0 150.5 69t119 167.5t44.5 187.5q0 107 -35.5 204t-100 170.5t-162.5 117t-214 43.5q-115 0 -225.5 -54t-196.5 -148t-138.5 -232.5t-52.5 -296.5q0 -137 50 -248t136.5 -182.5t201 -109.5
t245.5 -38q309 0 592 186q31 17 57 17q42 0 73.5 -26.5t31.5 -65.5q0 -49 -65.5 -96.5t-160.5 -82t-199 -62t-183.5 -41t-110.5 -13.5q-131 0 -250.5 33t-220.5 100t-175.5 161t-116.5 224.5t-42 282.5q0 176 57.5 334t156 272t235 181t288.5 67q89 0 175.5 -22.5t169 -73
t146 -123.5t104 -182t44.5 -240q3 -130 -22 -233.5t-67 -168t-98.5 -107.5t-111.5 -60t-110 -17q-121 0 -217 76q-61 -58 -144 -58q-74 0 -138 49t-99 122t-35 147q0 126 75 228.5t179 102.5zM655 455q52 0 76.5 39t24.5 100q0 46 -6.5 89.5t-21.5 86t-44 68.5t-68 26
q-58 0 -99.5 -55.5t-41.5 -118.5q0 -86 57 -160.5t123 -74.5z" />
    <glyph glyph-name="A" unicode="A" horiz-adv-x="1077" 
d="M467 1450l151 -10q37 -160 101.5 -351t124 -340.5t127 -340.5t106.5 -347q0 -58 -19.5 -86t-49.5 -28q-26 0 -48.5 21t-31.5 59q-8 36 -18 72.5t-24 77t-23 66t-27.5 72.5t-24.5 64q-274 37 -516 63q-26 -71 -65.5 -234t-59.5 -224q-28 -35 -68 -35q-41 0 -71.5 36.5
t-30.5 90.5q64 234 232.5 687t234.5 687zM537 1247q-40 -231 -224 -708h226q141 0 254 -11q-207 444 -256 719z" />
    <glyph glyph-name="B" unicode="B" horiz-adv-x="995" 
d="M82 51l10 1409q22 74 172 74q101 0 193.5 -22.5t168.5 -66t121.5 -116.5t45.5 -166q0 -95 -47 -184.5t-115 -116.5q127 -18 204.5 -154.5t77.5 -322.5q0 -77 -38.5 -143.5t-100.5 -111t-141.5 -76.5t-161.5 -47t-160 -15q-167 0 -229 59zM246 752q0 -135 -4 -553
q61 -70 153 -70q80 0 164 48t138.5 124.5t54.5 153.5q0 147 -98 228t-253 81q-102 0 -155 -12zM242 899l125 2q128 0 197 75t69 179q0 105 -70.5 182.5t-193.5 77.5q-66 0 -133 -22q4 -122 5 -303t1 -191z" />
    <glyph glyph-name="C" unicode="C" horiz-adv-x="1081" 
d="M997 1321l-79 -92q-153 114 -308 114q-72 0 -130 -25t-96 -64.5t-65.5 -99.5t-42.5 -117.5t-23.5 -133t-10.5 -130.5t-2 -124q0 -55 13.5 -126.5t43.5 -150.5t71.5 -144.5t104 -108.5t133.5 -43q78 0 167 33.5t218 99.5q12 -17 22.5 -34.5t16 -28.5l15.5 -31t16 -33
q-251 -174 -451 -174q-87 0 -164.5 36.5t-133.5 98.5t-101 141t-72.5 166.5t-42 172t-14.5 161.5q0 70 5.5 139.5t20 147.5t37 146.5t59.5 132.5t84 109.5t113.5 73t145.5 27.5q116 0 238.5 -40t211.5 -99z" />
    <glyph glyph-name="D" unicode="D" horiz-adv-x="1097" 
d="M82 12l6 1444q444 -3 686 -226.5t242 -654.5q0 -112 -47.5 -208t-125 -162t-177.5 -113.5t-204.5 -69.5t-205.5 -22q-82 0 -174 12zM231 133h35q91 0 176.5 16t166 53t140.5 91t96 135.5t36 181.5q0 101 -39.5 209t-105 198.5t-144.5 163.5t-164.5 114.5t-157.5 41.5
q-27 0 -51 -6q0 -122 12 -1198z" />
    <glyph glyph-name="E" unicode="E" horiz-adv-x="937" 
d="M844 90l20 -90q-78 0 -282.5 -7t-296.5 -7q-148 0 -203 14q20 223 23.5 739.5t25.5 716.5q66 -6 361 -10t385 -19l20 -90q-90 -16 -358 -37.5t-285 -23.5q2 -46 9.5 -188.5t8.5 -233.5q69 -8 250 -23.5t226 -19.5l20 -90q-10 -1 -140.5 -14t-213 -19.5t-140.5 -7.5
q0 -88 -3 -267.5t-3 -262.5q32 -3 134.5 -12t159 -14.5t139.5 -15t143 -18.5z" />
    <glyph glyph-name="F" unicode="F" horiz-adv-x="917" 
d="M264 -12l-182 12q20 223 23.5 739.5t25.5 716.5q66 -6 361 -10t385 -19l20 -90q-90 -16 -358 -37.5t-285 -23.5q2 -46 9.5 -188.5t8.5 -233.5q69 -8 250 -23.5t226 -19.5l20 -90q-10 -1 -140.5 -14t-213 -19.5t-140.5 -7.5v-35q0 -76 -5 -314t-5 -313v-30z" />
    <glyph glyph-name="G" unicode="G" horiz-adv-x="1169" 
d="M735 461l-20 90q40 7 187.5 19.5t184.5 19.5v-635l-155 -33q-2 20 -2 95.5t-2 97.5q0 -5 -13.5 -24t-44 -47t-71 -53.5t-102.5 -44t-130 -18.5q-485 0 -485 756q0 70 5.5 139.5t20 147.5t37 146.5t59.5 132.5t84 109.5t113.5 73t145.5 27.5q116 0 238.5 -40t211.5 -99
l-79 -92q-153 114 -308 114q-72 0 -130 -25t-96 -64.5t-65.5 -99.5t-42.5 -117.5t-23.5 -133t-10.5 -130.5t-2 -124q0 -244 89 -398.5t234 -154.5q61 0 121 20t102 48t76 58t50.5 50.5t17.5 24.5v127z" />
    <glyph glyph-name="H" unicode="H" horiz-adv-x="960" 
d="M698 1438l115 24q27 -214 36.5 -463t13 -523t16.5 -460q-19 -61 -70 -61q-36 0 -69 29.5t-42 70.5q2 72 2 242v393q-42 -3 -122 -9.5t-145.5 -10.5t-123.5 -4q-51 0 -76 2q3 -120 14.5 -342t14.5 -310q-19 -61 -69 -61q-36 0 -69 29.5t-42 70.5q6 167 11 665t20 742
l90 -20q0 -6 1 -19t1 -20q20 -389 28 -617q70 5 461 41q1 0 2 20t1.5 162.5t0.5 428.5z" />
    <glyph glyph-name="I" unicode="I" horiz-adv-x="675" 
d="M47 -6l-4 98q17 3 54.5 9.5t61 11t56 8t57.5 4.5q2 68 2 203q0 180 -8.5 519.5t-9.5 448.5l-203 11l-12 114q82 -2 254 -2q174 0 260 -2l6 -98q-35 -15 -97.5 -18t-76.5 -5q6 -56 7.5 -281t1.5 -500t3 -390q31 -6 122.5 -15t113.5 -12l-4 -104q-59 2 -191 2
q-68 0 -201.5 -1t-191.5 -1z" />
    <glyph glyph-name="J" unicode="J" horiz-adv-x="778" 
d="M0 197l102 51q115 -156 265 -156q47 0 80 15.5t53 41t31 71t14.5 94t3.5 120.5q0 131 -4 412t-4 440q0 109 2 164q15 -6 37 -6q8 0 24 1t25 1q31 0 59 -12q-4 -136 -4 -207q0 -114 6 -367.5t6 -392.5q0 -72 -0.5 -110t-2.5 -93t-7 -82t-13.5 -66t-21 -56.5t-31.5 -42
t-43.5 -34t-58 -20.5t-74.5 -14.5t-92 -3.5q-110 0 -203 59.5t-149 192.5z" />
    <glyph glyph-name="K" unicode="K" horiz-adv-x="919" 
d="M920 -14h-177q-67 62 -141 143t-118.5 134t-131 160.5t-116.5 143.5l26 -538q-19 -62 -69 -62q-35 0 -68.5 30t-42.5 71q5 154 10 661t19 748l90 -21q6 -98 12.5 -345.5t11.5 -330.5q24 30 107.5 131.5t107.5 130.5t88 104.5t100 113.5t90 94.5t107 107.5l62 -98
q-18 -30 -60 -85t-85 -108t-111.5 -134.5t-108.5 -128t-110 -127.5t-84 -97q69 -74 288.5 -344.5t303.5 -353.5z" />
    <glyph glyph-name="L" unicode="L" horiz-adv-x="972" 
d="M96 1434l119 -13q32 -319 59 -1259q134 7 340 7.5t330 6.5q13 -34 17.5 -96.5t11.5 -91.5q-262 16 -670 16h-221q9 296 10 792t4 638z" />
    <glyph glyph-name="M" unicode="M" horiz-adv-x="1472" 
d="M1473 0l-152 -14q-108 671 -240 1181q-67 -156 -146 -439t-108 -366q-4 0 -12.5 -1t-13.5 -1q-28 0 -92 6.5t-82 6.5q-2 57 -102.5 385t-121.5 422q-22 -192 -109 -542.5t-169 -637.5l-125 12q19 158 61 355t81 351.5t76 348t50 354.5q36 4 58 4q26 0 53.5 -3t57 -7.5
t36.5 -5.5q27 -4 80.5 -180.5t107.5 -389t68 -249.5q56 139 136.5 448.5t111.5 393.5q4 0 201 -19q52 -202 101 -434.5t107 -534.5t87 -444z" />
    <glyph glyph-name="N" unicode="N" horiz-adv-x="1124" 
d="M82 55l27 1385h106q181 -357 655 -1241v157q0 583 23 1086l113 -23q22 -408 36 -1429q-46 -19 -88 -19q-71 0 -143 41q-121 187 -300.5 547.5t-258.5 499.5q2 -135 3 -495.5t7 -547.5q-19 -61 -69 -61q-36 0 -69 29.5t-42 70.5z" />
    <glyph glyph-name="O" unicode="O" horiz-adv-x="1073" 
d="M84 670q0 274 22 410q60 372 315 418q37 7 79 7q90 0 162.5 -25.5t123 -67t88 -104t59.5 -127.5t35.5 -146.5t18 -152.5t4.5 -153q0 -80 -2.5 -143t-12 -145t-25.5 -143.5t-46 -125t-71.5 -104.5t-103 -67t-138.5 -26q-123 0 -212.5 30t-146.5 84t-90 142.5t-46 192
t-13 246.5zM848 653q0 51 -4 107.5t-15 127t-27.5 135t-45 127.5t-64.5 109t-88.5 74.5t-114.5 28.5q-61 0 -111.5 -62.5t-80 -157t-45.5 -194t-16 -184.5q0 -238 20 -348q47 -255 231 -298q33 -8 70 -9q75 4 132.5 50t91 123t50.5 170.5t17 200.5z" />
    <glyph glyph-name="P" unicode="P" horiz-adv-x="1050" 
d="M115 1436l90 24q0 -63 2 -71q54 35 140 55t179 20q222 0 332.5 -139.5t110.5 -388.5q0 -105 -25 -195.5t-75.5 -163t-136 -114t-197.5 -41.5q-45 0 -93.5 4t-112.5 11t-83 9q4 -146 16 -454q-19 -62 -69 -62q-35 0 -68.5 30t-42.5 71q5 156 12.5 646.5t20.5 758.5z
M223 1253l17 -622q47 -27 117 -44.5t137 -17.5q137 0 233 104t96 255q0 105 -43 201t-125 158.5t-182 62.5q-122 0 -250 -97z" />
    <glyph glyph-name="Q" unicode="Q" horiz-adv-x="1081" 
d="M854 -229l20 -90q-30 -3 -57 -3q-141 0 -218 79t-110 229q-407 68 -407 598q0 420 90 673q88 248 342 248q85 -13 154.5 -44.5t119 -74.5t87.5 -102t61 -120.5t37.5 -135.5t20 -143t5.5 -146q0 -64 -0.5 -102t-3.5 -107.5t-9 -114.5t-17.5 -108.5t-28.5 -105.5t-43 -88
t-59 -73.5t-78.5 -45.5t-100.5 -19q-2 -10 -2 -26q0 -73 68 -125.5t129 -52.5zM848 653q0 52 -3 106t-12.5 124t-25 131.5t-42 123t-61.5 105t-86.5 71t-113.5 27.5q-41 0 -75.5 -13.5t-59 -33.5t-44 -55.5t-32 -66.5t-21 -79.5t-13 -82.5t-6.5 -87.5t-2.5 -81t-0.5 -77.5
q0 -66 1.5 -115t7.5 -120t17 -123.5t32.5 -110t51 -94.5t74.5 -63t101 -29q71 0 126 30.5t89.5 81t57 122t31.5 147.5t9 163z" />
    <glyph glyph-name="R" unicode="R" horiz-adv-x="1062" 
d="M1010 -33l32 -82q-72 2 -151.5 40t-148 95t-135.5 130.5t-116.5 142.5t-87.5 135l-157 18q4 -146 16 -454q-19 -62 -69 -62q-35 0 -68.5 30t-42.5 71q5 156 12.5 646.5t20.5 758.5l90 24q0 -63 2 -71q54 35 140 55t179 20q222 0 332.5 -139.5t110.5 -388.5
q0 -91 -22 -176.5t-66 -160t-119.5 -122.5t-173.5 -55q44 -91 107 -182t149.5 -171.5t165.5 -101.5zM223 1253l17 -622q47 -27 117 -44.5t137 -17.5q137 0 233 104t96 255q0 105 -43 201t-125 158.5t-182 62.5q-122 0 -250 -97z" />
    <glyph glyph-name="S" unicode="S" 
d="M55 115l29 110q178 -94 342 -94q54 0 102.5 10.5t92.5 33t70 65t26 100.5q0 72 -38.5 134.5t-100 110t-135.5 93t-148.5 94t-136 101.5t-100 126.5t-38.5 159.5q0 91 45 177.5t126.5 143t177.5 56.5q110 0 246.5 -43.5t224.5 -87.5l-25 -82q-80 28 -189 54t-194 26
q-95 0 -163 -62.5t-68 -160.5q0 -58 23.5 -108t64 -87.5t92.5 -72t109.5 -67t115 -67.5t109.5 -79t92.5 -94.5t64 -121t23.5 -153.5q0 -150 -95 -245t-251 -95q-131 0 -281 38t-213 87z" />
    <glyph glyph-name="T" unicode="T" horiz-adv-x="882" 
d="M20 1341l-20 91l764 45q50 -3 84.5 -37.5t34.5 -73.5q0 -26 -20.5 -46t-59.5 -24l-336 19q47 -651 74 -1284q-19 -62 -70 -62q-35 0 -68.5 30t-42.5 71q5 136 5 327q0 82 -1.5 247t-1.5 247q0 215 9 430q-117 8 -351 20z" />
    <glyph glyph-name="U" unicode="U" horiz-adv-x="1075" 
d="M850 1485l119 -10q24 -337 24 -623q0 -185 -10 -420q-3 -70 -9.5 -123t-21 -107t-37 -92t-57.5 -72t-82.5 -54.5t-113 -32.5t-148.5 -12q-65 0 -118.5 8.5t-93.5 24.5t-70.5 39.5t-52 52t-36.5 64t-23.5 73.5t-14 83t-8.5 90t-5 96v5q-10 242 -10 416q0 145 12 579
l111 -24q4 -185 22 -526.5t23 -483.5q2 -49 3.5 -78t8 -70.5t17 -66.5t29.5 -53.5t45 -43.5t65.5 -25.5t89.5 -10.5q70 0 121 9t84.5 34t53.5 47.5t32 71t17 82t11 102.5q15 173 17 559.5t6 491.5z" />
    <glyph glyph-name="V" unicode="V" horiz-adv-x="858" 
d="M737 1440l121 -6q-10 -28 -83 -340t-158 -649.5t-125 -442.5q-20 -4 -39 -4q-55 0 -127 14q-36 110 -90.5 337t-95 418t-88 421t-52.5 252h115q84 -390 286 -1180q15 54 67.5 248t84.5 310.5t75.5 270t70.5 241.5t38 110z" />
    <glyph glyph-name="W" unicode="W" horiz-adv-x="1366" 
d="M1245 1440l121 -6q-10 -28 -83.5 -340t-158.5 -649.5t-125 -442.5q-20 -4 -38 -4q-55 0 -127 14q-62 188 -164 647q-124 -514 -178 -657q-20 -4 -39 -4q-55 0 -127 14q-36 110 -90.5 337t-95 418t-88 421t-52.5 252h115q84 -390 286 -1180q31 109 105 382t94 347
q-39 185 -92 451h115q84 -390 286 -1180q15 54 67.5 248t84.5 310.5t75.5 270t70.5 241.5t38 110z" />
    <glyph glyph-name="X" unicode="X" horiz-adv-x="1116" 
d="M86 -18l-86 45q52 122 120 240t183.5 293t145.5 224q-57 88 -210 308t-227 342l84 39q157 -184 426 -572q10 38 175.5 266t189.5 271q29 51 71 51q38 0 71 -35.5t36 -81.5q-10 -12 -206.5 -285t-244.5 -329q67 -103 259 -365.5t243 -349.5q0 -38 -19 -58t-48 -20
t-58.5 18.5t-46.5 49.5q-87 136 -215.5 322t-193.5 288q-63 -100 -220 -320t-229 -341z" />
    <glyph glyph-name="Y" unicode="Y" horiz-adv-x="845" 
d="M776 1446l111 -35q-17 -34 -89 -190.5t-156.5 -323t-164.5 -291.5q7 -97 10 -304t9 -296q-18 -4 -93 -4q-70 0 -84 4q6 86 10 295t11 305q-75 125 -142.5 277t-130.5 308t-108 247l135 10q49 -105 112 -243.5t108.5 -236.5t95.5 -200q29 53 161 312t205 366z" />
    <glyph glyph-name="Z" unicode="Z" horiz-adv-x="890" 
d="M850 121l4 -123q-114 -4 -180 -4q-87 0 -260.5 4t-253.5 4q-62 0 -152 -4l12 108q6 56 137.5 279.5t320 523.5t237.5 383q-13 1 -298 10t-417 21v109h59q111 0 259 2.5t325.5 6.5t247.5 5v-158q-233 -409 -627 -1143q87 -5 293 -12t293 -12z" />
    <glyph glyph-name="bracketleft" unicode="[" horiz-adv-x="557" 
d="M129 -180l-47 1810q39 -7 191 -8.5t200 -15.5l21 -90q-157 -41 -295 -41q3 -90 29.5 -687.5t33.5 -838.5q24 -3 134 -9t149 -16l12 -92q-29 2 -82 2q-63 0 -178 -6t-168 -8z" />
    <glyph glyph-name="backslash" unicode="\" horiz-adv-x="1026" 
d="M0 1649l162 -17q169 -382 276.5 -621t286.5 -609t301 -580q-39 -19 -96 -19q-69 0 -80 19q-145 218 -422 810.5t-428 1016.5z" />
    <glyph glyph-name="bracketright" unicode="]" horiz-adv-x="557" 
d="M475 1630l-47 -1810q-53 2 -168 8t-178 6q-53 0 -82 -2l12 92q39 10 149 16t134 9q7 241 33.5 838.5t29.5 687.5q-138 0 -295 41l21 90q48 14 200 15.5t191 8.5z" />
    <glyph glyph-name="asciicircum" unicode="^" horiz-adv-x="905" 
d="M905 678l-131 2q-47 52 -168.5 281t-159.5 282q-42 -86 -168 -279.5t-192 -250.5l-86 45q57 123 172.5 329.5t198.5 333.5q8 13 40 27t62 14q58 0 74 -51q33 -104 90 -222.5t148 -286.5t120 -224z" />
    <glyph glyph-name="underscore" unicode="_" horiz-adv-x="1132" 
d="M20 31l-20 90q277 24 1014 63q50 -3 84.5 -37t34.5 -73q0 -26 -20.5 -46t-59.5 -24q-132 5 -486 9.5t-547 17.5z" />
    <glyph glyph-name="grave" unicode="`" horiz-adv-x="342" 
d="M342 1069l-84 -51q-65 50 -161.5 200t-96.5 230q0 37 18.5 55.5t47.5 18.5q60 0 100 -58q21 -86 98.5 -240t77.5 -155z" />
    <glyph glyph-name="a" unicode="a" horiz-adv-x="823" 
d="M154 864l-39 103q52 52 130.5 82t157.5 30q338 0 338 -583q0 -79 -8 -235t-8 -234q-17 -64 -63 -64q-34 0 -65.5 37t-31.5 80q0 14 2 20q-58 -56 -127 -88t-137 -32q-106 0 -184 76.5t-78 187.5q0 122 66.5 234.5t176.5 181.5t230 69q15 0 51 -4q-16 233 -184 233
q-100 0 -227 -94zM571 238q4 140 4 213q0 61 -4 167h-16q-91 -1 -176.5 -46.5t-142 -129.5t-56.5 -182q0 -63 39 -101t94 -38q40 0 92 21.5t83.5 41t82.5 54.5z" />
    <glyph glyph-name="b" unicode="b" horiz-adv-x="909" 
d="M217 -39l-111 -20l-24 1579q55 29 151 47q-2 -45 -2 -146q0 -205 17 -428q94 56 205 56q90 0 158 -37t108 -94t65.5 -137.5t34 -157t8.5 -162.5q0 -69 -13 -138t-43 -136t-73.5 -118.5t-109.5 -83.5t-146 -32q-112 0 -223 70q-2 -20 -2 -62zM242 799l-6 -645
q13 -36 76 -57t137 -21q56 0 97.5 19t66.5 49.5t40 76.5t20 91.5t5 103.5q0 46 -3.5 91t-12 104.5t-26.5 108.5t-44.5 92.5t-69 68t-96.5 24.5q-59 0 -109.5 -28.5t-74.5 -77.5z" />
    <glyph glyph-name="c" unicode="c" horiz-adv-x="800" 
d="M756 991l-11 -86q-89 13 -143 13q-85 0 -152.5 -31.5t-110 -83t-71 -122t-40 -143t-11.5 -151.5q0 -50 4.5 -90.5t18 -84t36.5 -72.5t62.5 -47.5t93.5 -18.5q89 0 223 35q43 16 68 16t38 -24.5t19 -88.5q-167 -55 -325 -55q-91 0 -156 19t-107 53.5t-66.5 92t-34 125.5
t-9.5 163q0 110 11 198t41 171t79.5 138t129.5 88t187 33q151 0 226 -47z" />
    <glyph glyph-name="d" unicode="d" horiz-adv-x="909" 
d="M803 -51l-111 20q0 42 -2 62q-111 -70 -223 -70q-76 0 -140.5 30.5t-108.5 81t-75.5 117t-46 138t-14.5 143.5q0 54 4 105.5t15 111.5t28.5 111t47 99.5t67.5 83t92.5 55t120.5 20.5q111 0 205 -56q16 210 16 429q0 100 -2 145q96 -18 151 -47zM674 162l-6 645
q-24 49 -75 77.5t-110 28.5q-53 0 -95.5 -23.5t-69 -65.5t-45 -90t-27 -107t-12 -106t-3.5 -97q0 -53 4.5 -96.5t19.5 -90.5t39 -79t67 -53t100 -21q74 0 137 21t76 57z" />
    <glyph glyph-name="e" unicode="e" horiz-adv-x="907" 
d="M889 195l18 -89q-86 -33 -260 -71.5t-258 -38.5q-70 0 -125.5 39t-88.5 98t-55 135.5t-30 145t-8 133.5q0 113 24.5 201.5t76.5 157t141 105t211 36.5q107 0 189.5 -69t82.5 -179q0 -45 -18.5 -82.5t-48.5 -63.5t-75 -48t-89 -35t-99.5 -25t-99 -18.5t-95 -14.5
t-79.5 -14q2 -49 5.5 -85t12.5 -81t25.5 -76.5t41.5 -59.5t64 -42.5t90 -14.5q73 0 177 13.5t185 28t85 14.5zM211 623q100 29 232 77t212 86q-15 66 -37.5 95.5t-70.5 29.5q-122 0 -220.5 -82.5t-115.5 -205.5z" />
    <glyph glyph-name="f" unicode="f" horiz-adv-x="669" 
d="M598 874l18 -92q-42 -7 -140.5 -14.5t-145.5 -15.5q0 -515 12 -746q-11 -38 -33 -58t-47 -20q-27 0 -50 21.5t-30 56.5q0 59 7.5 325.5t7.5 411.5l-154 7q-2 20 -2 135q21 -3 76.5 -9.5t75.5 -9.5q6 63 6 183q0 67 1.5 108.5t6 88t13.5 73.5t25 54.5t39.5 40.5t56.5 21.5
t77 8.5q68 0 139 -16t113 -42l-13 -71q-22 1 -79 4.5t-84 3.5q-81 0 -123.5 -35.5t-42.5 -136.5q0 -32 1 -69t1 -48q0 -74 -2 -162q32 0 89 -2t83 -2q48 0 98 6z" />
    <glyph glyph-name="g" unicode="g" horiz-adv-x="882" 
d="M692 1032l90 21q0 -60 2 -95q13 -471 13 -571q0 -45 2 -143t2 -148q0 -75 -3.5 -135.5t-13.5 -127.5t-28 -118t-48 -98.5t-71 -78.5t-100.5 -49.5t-133.5 -18.5q-88 0 -309 26q-2 20 -7 47t-5 41q0 29 6 47q33 -3 94 -11t107.5 -12.5t85.5 -4.5q52 0 92 9.5t77.5 35.5
t62 69.5t39.5 114.5t16 168q-93 -55 -205 -55q-75 0 -135.5 25t-100.5 69.5t-68 100t-43 124.5t-21.5 133t-6.5 135q0 102 22 190.5t66.5 161t120.5 114.5t176 42q113 0 223 -69q2 20 2 61zM668 195l6 645q-13 36 -76 57t-137 21q-108 0 -169 -99.5t-61 -240.5
q0 -46 3.5 -91t12 -104.5t26.5 -108.5t44.5 -92.5t69 -68.5t96.5 -25q59 0 109.5 29t75.5 78z" />
    <glyph glyph-name="h" unicode="h" horiz-adv-x="888" 
d="M92 1440l105 -25q5 -81 8.5 -261.5t7.5 -248.5q109 115 258 115q136 0 236 -96t100 -256v-658q-27 -12 -68 -12q-44 0 -80 8q0 17 1.5 49t1.5 49q0 79 -6.5 270t-6.5 318q-16 96 -66 140.5t-118 44.5q-67 0 -133.5 -37t-98.5 -88q6 -126 8 -380t7 -366q-50 -8 -82 -8
q-50 0 -84 12q4 98 4 309q0 94 -2.5 345t-1 432.5t9.5 343.5z" />
    <glyph glyph-name="i" unicode="i" horiz-adv-x="362" 
d="M127 1028l90 -20q16 -166 28.5 -520.5t16.5 -430.5q-19 -61 -69 -61q-36 0 -69 29.5t-42 70.5q4 74 16.5 422t28.5 510zM154 1386q55 0 91 -46.5t36 -106.5q0 -42 -21 -70t-57 -28q-56 0 -88.5 46t-32.5 107q0 42 19.5 70t52.5 28z" />
    <glyph glyph-name="j" unicode="j" horiz-adv-x="333" 
d="M-164 -375v74q52 11 93.5 37.5t69.5 59.5t47.5 81.5t30 92.5t16.5 104.5t7.5 105.5t1.5 107q0 82 -2.5 290.5t-3.5 380.5q4 44 22.5 66.5t43.5 22.5q31 0 57 -30t29 -77q0 -54 1 -168.5t1 -177.5q0 -6 1 -44.5t1 -70.5q0 -225 -14.5 -382t-39 -252t-68 -147.5t-91 -69.5
t-117.5 -17q-43 0 -86 14zM123 1391q55 0 91 -47t36 -107q0 -42 -21 -70t-57 -28q-56 0 -88.5 46t-32.5 107q0 42 19.5 70.5t52.5 28.5z" />
    <glyph glyph-name="k" unicode="k" horiz-adv-x="811" 
d="M811 0l-182 4q-73 73 -203 238.5t-164 203.5v-411q-19 -62 -69 -62q-35 0 -68.5 30t-42.5 71q6 207 6 684t8 686l121 -27q2 -80 6.5 -327.5t9.5 -368.5l488 354l33 -90q-203 -148 -447 -389q54 -58 239 -282.5t265 -313.5z" />
    <glyph glyph-name="l" unicode="l" horiz-adv-x="344" 
d="M127 1372l90 -20l45 -1295q-19 -61 -69 -61q-36 0 -69 29.5t-42 70.5z" />
    <glyph glyph-name="m" unicode="m" horiz-adv-x="1161" 
d="M629 793q10 -151 15.5 -460t6.5 -327q-46 -12 -82 -12q-28 0 -55 10q-5 77 -7 177.5t-2.5 177.5t-3 161t-11 144.5t-24 112t-45 79t-71.5 29.5q-42 0 -68.5 -18.5t-56.5 -65.5v-793q-31 -16 -71 -16q-32 0 -72 10q5 122 7.5 495t16.5 550l91 -21l6 -102q59 94 151 94
q137 0 230 -121q57 121 188 121q50 0 90 -12q53 -15 93 -54.5t63 -91.5t37.5 -123.5t19 -138.5t4.5 -149q0 -71 -5 -193t-5 -164q0 -54 6 -92q-7 -2 -34.5 -10.5t-50 -13.5t-40.5 -5q-20 0 -28 4q-9 30 -9 97q0 44 6.5 181.5t6.5 215.5q0 89 -6.5 157t-23.5 130.5t-51 97
t-83 35.5q-36 -1 -64.5 -23t-68.5 -73z" />
    <glyph glyph-name="n" unicode="n" horiz-adv-x="847" 
d="M217 801l8 -793q-31 -16 -71 -16q-32 0 -72 10q5 122 7.5 495t16.5 550l91 -21l6 -113q48 52 112 82.5t131 30.5q52 0 86.5 -5.5t69 -24t55 -48.5t40.5 -85t30.5 -127t19.5 -181t13 -241t6 -312q-12 -4 -45 -4q-73 0 -113 18q-8 33 -8 107q0 37 3 141.5t3 163.5
q0 61 -3 111.5t-10 105t-20.5 95.5t-33.5 74.5t-51 52t-70 18.5q-50 0 -81 -4t-53.5 -17t-33.5 -24t-33 -39z" />
    <glyph glyph-name="o" unicode="o" 
d="M82 426q0 61 9.5 136.5t33.5 166t59.5 163.5t94.5 122t131 49q79 0 149 -33.5t119 -89.5t85 -128.5t53.5 -151t17.5 -156.5q0 -70 -11 -141t-38 -145t-67 -132t-105 -97.5t-146 -45.5q-185 24 -285 157t-100 326zM422 958q-44 -5 -80 -53.5t-56.5 -115t-34.5 -146.5
t-19 -141t-5 -105q0 -111 70 -206t156 -95q61 0 111.5 48.5t79 120t43.5 142.5t15 128q0 164 -74 285t-206 138z" />
    <glyph glyph-name="p" unicode="p" horiz-adv-x="909" 
d="M106 1053l111 -21q0 -41 2 -61q110 69 223 69q76 0 140.5 -30.5t108.5 -81t75.5 -117t46 -138t14.5 -143.5q0 -54 -4 -105.5t-15 -111t-28.5 -111t-46.5 -100t-67 -82.5t-92.5 -54.5t-120.5 -20.5q-112 0 -205 55q8 -350 14 -520q-19 -62 -69 -62q-35 0 -68.5 30
t-42.5 71zM236 840l6 -645q25 -49 75 -78t109 -29q53 0 95.5 23.5t69 66t45 90.5t27 107t12 106t3.5 97q0 53 -4.5 96.5t-19 91t-38.5 79t-67 52.5t-100 21q-74 0 -137 -21t-76 -57z" />
    <glyph glyph-name="q" unicode="q" horiz-adv-x="909" 
d="M692 1032l111 21l24 -1579q-55 -29 -151 -47q2 45 2 145q0 218 -16 428q-93 -55 -205 -55q-75 0 -135.5 25t-100.5 69.5t-68 100t-43 124.5t-21.5 133t-6.5 135q0 69 13 138t43 136t73.5 118.5t109.5 83.5t146 32q113 0 223 -69q2 20 2 61zM668 195l6 645q-13 36 -76 57
t-137 21q-56 0 -98 -19t-66.5 -49.5t-40 -76.5t-20.5 -92t-5 -103q0 -46 3.5 -91t12 -104.5t26.5 -108.5t44.5 -92.5t69 -68.5t96.5 -25q59 0 109.5 29t75.5 78z" />
    <glyph glyph-name="r" unicode="r" horiz-adv-x="745" 
d="M741 762l-88 6q-44 113 -141 113q-34 0 -66.5 -9t-69.5 -31t-58.5 -37t-63.5 -46q-1 -28 -1 -181.5t2 -341t7 -202.5q-19 -62 -69 -62q-35 0 -68.5 30t-42.5 71q40 677 68 970l90 -20l6 -133q138 115 239 115q109 0 184.5 -50t75.5 -145q0 -31 -4 -47z" />
    <glyph glyph-name="s" unicode="s" horiz-adv-x="776" 
d="M698 965l-20 -80q-189 80 -301 80q-96 0 -135 -30.5t-39 -123.5q0 -56 29.5 -97.5t76.5 -67t103.5 -47.5t113 -46.5t103.5 -55.5t76.5 -83.5t29.5 -122.5q0 -82 -40 -155t-118.5 -120.5t-179.5 -48.5q-110 0 -205 46.5t-151 115.5l57 61q28 -11 73 -32t66 -29t59.5 -15.5
t82.5 -7.5q95 0 154 42t59 118q0 50 -28.5 85.5t-74 57.5t-100.5 41.5t-110 45.5t-100.5 60.5t-74 95t-28.5 141.5q0 120 64.5 200t183.5 80q37 0 76.5 -6.5t86.5 -21.5t71.5 -24t78.5 -31t61 -25z" />
    <glyph glyph-name="t" unicode="t" horiz-adv-x="745" 
d="M629 969l20 -90q-55 -4 -167 -21.5t-167 -21.5q7 -49 10.5 -114.5t3 -121.5t2 -119t7 -114t18 -98t35.5 -79.5t60 -51.5t90 -19q67 0 149 26q35 -72 55 -106q-156 -57 -319 -57q-51 0 -90 23.5t-63.5 68.5t-41 97t-24.5 124t-11 134.5t-3 141.5q0 53 1 144.5t1 126.5
q-21 -2 -94.5 -2.5t-86.5 -1.5q-14 128 -14 139q14 -4 45 -4q18 0 58 3t61 3q8 0 21 -1t18 -1q10 268 16 356l90 -20q2 -47 3 -102.5t1.5 -123t1.5 -104.5q52 -4 157 -7t157 -7z" />
    <glyph glyph-name="u" unicode="u" horiz-adv-x="901" 
d="M676 1004l96 -19v-18q0 -138 16.5 -463t30.5 -498q-41 -16 -76 -16q-29 0 -71 10l-17 51q-129 -71 -243 -71q-62 0 -112.5 21t-84 55t-58.5 84.5t-39 101t-22.5 114t-11 115t-2.5 111.5q0 260 33 471l90 -21q12 -58 12 -143q0 -45 -4 -152.5t-4 -165.5q0 -76 5 -135
t21 -119.5t43 -100t73 -64.5t108 -25q95 0 188 39q3 67 8 375t21 463z" />
    <glyph glyph-name="v" unicode="v" horiz-adv-x="759" 
d="M627 1028l133 -18q-38 -161 -120.5 -482.5t-127.5 -523.5q-77 -14 -135 -14q-46 0 -90 8q-31 110 -95 331t-110 388t-82 319l131 -10q44 -134 135 -430t125 -401q33 95 69.5 218t57 199.5t60 227t49.5 188.5z" />
    <glyph glyph-name="w" unicode="w" horiz-adv-x="1193" 
d="M1061 1036l133 -18q-38 -161 -120.5 -482.5t-127.5 -523.5q-77 -14 -135 -14q-46 0 -90 8l-113 391l-96 -393q-77 -14 -135 -14q-46 0 -90 8q-31 110 -95 331t-110 388t-82 319l131 -10q44 -134 135 -430t125 -401q69 202 139 473q-51 183 -96 376l131 -10
q44 -134 135 -430t125 -401q33 95 69.5 218t57 199.5t60 227t49.5 188.5z" />
    <glyph glyph-name="x" unicode="x" horiz-adv-x="729" 
d="M86 -49l-86 45q13 32 29 67.5t37.5 77t38 72t44.5 79t41 70.5t44 74t38 64q-55 76 -107.5 175t-77.5 158.5t-79 192.5h88q78 -161 250 -405q29 42 79.5 129.5t97 151t106.5 112.5q71 -42 71 -94q0 -30 -14 -58q-55 -66 -139.5 -209.5t-102.5 -171.5q71 -98 107 -150
t89 -136.5t89 -157.5q0 -38 -19 -58t-48 -20t-58.5 18.5t-46.5 49.5q-38 124 -188 340q-35 -58 -140 -204t-143 -212z" />
    <glyph glyph-name="y" unicode="y" horiz-adv-x="874" 
d="M225 -592l-123 70q38 66 65.5 115t55.5 101.5t44.5 85t56 108.5t67.5 130q-85 76 -152 203t-106.5 273t-61.5 280.5t-30 263.5l115 -6q12 -56 34.5 -178t39 -197t45.5 -176t70 -183.5t95 -150.5q279 541 279 877v23q6 -1 22.5 -3t27 -4t27.5 -5.5t36.5 -10.5t41.5 -16
q-22 -142 -60.5 -289.5t-94.5 -293.5t-109.5 -270.5t-128.5 -271.5t-127 -242.5t-129 -232.5z" />
    <glyph glyph-name="z" unicode="z" horiz-adv-x="841" 
d="M53 952l-26 119q27 0 202 5t275 5q210 0 330 -16q-3 -15 -3 -29q0 -6 1.5 -26.5t1.5 -40.5q-67 -122 -176.5 -261.5t-236 -293t-206.5 -273.5q66 0 272 -2t344 -2q1 -15 6 -56t5 -63t-2 -36q-121 4 -834 4q-6 37 -6 57q0 21 6 76q25 49 120 169.5t194 239.5t189.5 244
t111.5 186q-88 5 -115 5q-61 0 -214 -5.5t-239 -5.5z" />
    <glyph glyph-name="braceleft" unicode="{" horiz-adv-x="530" 
d="M43 676l-2 104q66 44 105 107.5t52.5 130t20 138t16.5 139t32.5 126.5t76.5 107t141 74l31 -66q-66 -15 -107.5 -62.5t-58.5 -112.5t-25 -141.5t-14 -154t-18 -144.5t-45 -119t-88 -73q59 -55 95.5 -132t50.5 -154t21.5 -158.5t15.5 -152.5t25 -129.5t57 -96.5t105 -47
l-30 -66q-86 15 -140 59.5t-77.5 108.5t-35 139.5t-20 158t-23.5 158t-55 145.5t-106 114z" />
    <glyph glyph-name="bar" unicode="|" horiz-adv-x="344" 
d="M127 1577l90 -21q7 -148 18.5 -844t26.5 -847q-19 -62 -69 -62q-35 0 -68.5 30t-42.5 71q0 7 0.5 20.5l2 54t3.5 99.5q39 1089 39 1417v82z" />
    <glyph glyph-name="braceright" unicode="}" horiz-adv-x="530" 
d="M489 780l-2 -104q-58 -39 -96.5 -98t-54 -123t-27 -136.5t-16 -140t-20 -132.5t-40 -116t-76 -87.5t-126.5 -49.5l-31 66q65 9 105 47t57 96.5t25 129.5t16 152.5t22 158.5t50.5 154t95.5 132q-55 21 -88 73t-45.5 119t-18.5 144.5t-14 154t-25 141.5t-58.5 112.5
t-107.5 62.5l31 66q87 -26 141 -74t76.5 -107t32.5 -126.5t16.5 -139t20 -138t52.5 -130t105 -107.5z" />
    <glyph glyph-name="asciitilde" unicode="~" horiz-adv-x="1067" 
d="M729 725q62 0 99.5 22t95.5 93l102 -52q-23 -55 -53 -94.5t-59.5 -61.5t-68.5 -34.5t-72.5 -16t-78.5 -3.5q-52 0 -103 21t-86 46.5t-80.5 46.5t-86.5 21q-61 0 -105 -23t-90 -92l-102 51q29 69 62.5 112.5t74.5 64.5t79 27.5t95 6.5q53 0 107 -21t91 -46.5t86 -46.5
t93 -21z" />
    <glyph glyph-name="exclamdown" unicode="&#xa1;" horiz-adv-x="372" 
d="M150 739l90 -20q12 -156 20.5 -326t17 -395.5t13.5 -325.5q-4 -39 -24 -59.5t-46 -20.5q-39 0 -73 34.5t-37 84.5q5 100 13.5 465t25.5 563zM209 852q-55 0 -91 47t-36 107q0 42 21 70t57 28q55 0 88 -46.5t33 -107.5q0 -42 -19.5 -70t-52.5 -28z" />
    <glyph glyph-name="sterling" unicode="&#xa3;" horiz-adv-x="1097" 
d="M836 -8q-49 0 -150.5 20.5t-157.5 20.5q-73 0 -206 -26.5t-211 -26.5q-12 0 -70 14v74q110 4 172 80.5t74 181.5q9 86 10 177.5t-2 194.5l-191 7q-2 20 -2 135q20 -3 96 -9.5t97 -9.5q6 63 6 224q0 395 322 395q71 0 161 -18.5t131 -43.5l-12 -71q-22 1 -110 6.5
t-115 5.5q-248 0 -248 -233v-259q32 0 100 -5t93 -5q49 0 98 6l18 -92q-43 -7 -151.5 -11.5t-155.5 -12.5q6 -206 4 -281q-6 -173 -55 -287q56 17 125.5 14t120 -13t105.5 -21.5t83 -11.5q121 0 139 170l74 4q36 -81 27 -156q-7 -60 -69.5 -98.5t-149.5 -38.5z" />
    <glyph glyph-name="currency" unicode="&#xa4;" horiz-adv-x="1146" 
d="M61 563l-20 146h149q7 452 21 727l90 24q0 -63 2 -71q53 35 140 55t180 20q213 0 327.5 -117t114.5 -329q0 -473 -434 -473q-184 0 -289 10q0 -15 1 -49t1 -53q49 -1 158.5 -4t187.5 -3q114 0 199 5q39 -4 59.5 -24t20.5 -46q0 -37 -33 -62t-86 -28q-99 5 -180.5 8.5
t-170 7t-151.5 6.5q3 -168 10 -321q-19 -62 -69 -62q-36 0 -68.5 30t-36.5 71v291l-143 12l4 125l141 -8q2 37 2 112h-127zM319 1253l17 -544q74 -17 254 -17q154 0 242 83.5t88 234.5q0 166 -94.5 253t-256.5 87q-122 0 -250 -97z" />
    <glyph glyph-name="brokenbar" unicode="&#xa6;" horiz-adv-x="344" 
d="M88 98l21 541l129 -12q7 -563 24 -742q-19 -61 -69 -61q-36 0 -69 29.5t-42 70.5q0 7 0.5 20.5l2 54t3.5 99.5zM127 1597l90 -20q8 -176 16 -793l-120 -12q14 458 14 744v81z" />
    <glyph glyph-name="section" unicode="&#xa7;" horiz-adv-x="813" 
d="M735 1354l-20 -80q-189 80 -301 80q-96 0 -135 -30.5t-39 -123.5q0 -56 29.5 -97.5t76.5 -67t103.5 -47.5t113 -46.5t103.5 -55.5t76.5 -83.5t29.5 -122.5q0 -174 -182 -242q145 -80 145 -229q0 -82 -40 -155t-118.5 -120.5t-179.5 -48.5q-110 0 -205 46.5t-151 115.5
l57 62q28 -11 73 -32t66 -29t59.5 -15.5t82.5 -7.5q95 0 154 41.5t59 117.5q0 50 -28.5 85.5t-74 57.5t-100.5 41.5t-110 45.5t-100.5 60.5t-74 95t-28.5 141.5t31.5 147t91.5 100q-86 83 -86 224q0 120 64 200t183 80q37 0 76.5 -6t87 -22t71.5 -24t79.5 -31t60.5 -25z
M203 729q0 -22 5.5 -42t11 -35.5t21.5 -31.5t25 -26t33.5 -23.5t34 -19.5t41 -19t40.5 -16.5t44 -17.5q78 9 124 49.5t46 107.5q0 42 -19.5 73.5t-57.5 53.5t-76 37.5t-93.5 36.5t-91.5 39q-88 -40 -88 -166z" />
    <glyph glyph-name="copyright" unicode="&#xa9;" horiz-adv-x="1458" 
d="M1417 733q-1 -191 -48 -344.5t-131 -255t-200 -155.5t-254 -54q-164 0 -299.5 49.5t-234.5 145.5t-154 245.5t-55 340.5q0 356 193 574t503 218q183 0 335.5 -95.5t245 -271t99.5 -397.5zM178 709q0 -190 66 -333t201 -225.5t325 -82.5q126 0 226.5 48t164 132
t97.5 193.5t34 236.5q0 184 -68 343t-193.5 257t-280.5 98q-116 0 -219 -44t-182 -126t-125 -210.5t-46 -286.5zM965 1079l-45 -73q-86 65 -170 65q-187 0 -187 -369q0 -41 10 -89t30 -97.5t58 -82t87 -32.5q42 0 90.5 18.5t122.5 55.5q11 -15 22 -48t16 -42
q-141 -98 -249 -98q-74 0 -131.5 35.5t-92.5 96.5t-53 138t-18 164q0 73 11.5 142t38 139t80 112.5t128.5 42.5q64 0 133.5 -22.5t118.5 -55.5z" />
    <glyph glyph-name="guillemotleft" unicode="&#xab;" horiz-adv-x="1087" 
d="M866 74l-28 -62q-361 91 -832 408q-6 12 -6 29q0 20 8 28q153 102 425 270.5t349 208.5l54 -34q-195 -151 -346 -255.5t-322 -199.5q237 -182 698 -393zM1087 244l-55 -43q-29 12 -128.5 51.5t-168.5 68t-152.5 70t-127.5 74.5q151 82 210 114t147.5 82.5t131.5 79.5
t70 54l45 -41q-251 -207 -416 -283q47 -40 208.5 -109t235.5 -118z" />
    <glyph glyph-name="logicalnot" unicode="&#xac;" horiz-adv-x="866" 
d="M61 578l-20 108l666 45q55 -3 86.5 -30.5t31.5 -79.5q0 -33 -2.5 -77.5t-6 -84.5t-7 -74.5t-6 -55.5t-2.5 -20l-111 21l-12 248h-617z" />
    <glyph glyph-name="uni00AD" unicode="&#xad;" horiz-adv-x="702" 
d="M61 596l-20 90l502 45q50 -3 84.5 -37t34.5 -73q0 -26 -20.5 -46t-59.5 -24z" />
    <glyph glyph-name="registered" unicode="&#xae;" horiz-adv-x="1458" 
d="M1417 733q-1 -191 -48 -344.5t-131 -255t-200 -155.5t-254 -54q-164 0 -299.5 49.5t-234.5 145.5t-154 245.5t-55 340.5q0 356 193 574t503 218q183 0 335.5 -95.5t245 -271t99.5 -397.5zM178 709q0 -190 66 -333t201 -225.5t325 -82.5q230 0 369 155q-62 1 -116.5 12.5
t-94 26.5t-78 44t-61.5 51t-51.5 62t-42 62t-38.5 66l-102 12q2 -104 10 -297q-11 -41 -45 -41q-23 0 -44 19.5t-27 46.5q2 87 7 413t13 504l80 17q0 -43 2 -47q71 49 186 49q145 0 217 -91t72 -253q0 -124 -66 -221.5t-178 -106.5q118 -246 418 -246q92 154 92 373
q0 184 -68 343t-193.5 257t-280.5 98q-116 0 -219 -44t-182 -126t-125 -210.5t-46 -286.5zM561 1065l-10 -383q45 -25 166 -25q89 0 141.5 57.5t52.5 157.5q0 111 -46 182.5t-142 71.5q-78 0 -162 -61z" />
    <glyph glyph-name="degree" unicode="&#xb0;" horiz-adv-x="643" 
d="M0 1247q0 82 45.5 162.5t124 132t164.5 51.5q118 0 213.5 -99t95.5 -222q0 -135 -87.5 -239.5t-221.5 -104.5q-83 0 -159 38.5t-125.5 113t-49.5 167.5zM332 1462q-78 0 -143.5 -63.5t-65.5 -143.5q0 -81 62 -136.5t147 -55.5q82 0 138 60.5t56 146.5q0 73 -59 132.5
t-135 59.5z" />
    <glyph glyph-name="plusminus" unicode="&#xb1;" horiz-adv-x="991" 
d="M942 279l-20 -91l-766 -45q-39 4 -59.5 24t-20.5 46q0 39 34.5 73.5t84.5 37.5l204 -13v103q0 22 -4 186l-334 18l-20 91l350 18q-2 53 -2 162q0 139 8 254l90 -21q5 -44 19 -197.5t18 -189.5l307 19q50 -3 84.5 -37.5t34.5 -73.5q0 -26 -20.5 -46t-59.5 -24
q-11 1 -331 21q6 -66 17 -161t15 -132z" />
    <glyph glyph-name="mu" unicode="&#xb5;" horiz-adv-x="960" 
d="M-123 -352v73q52 11 93.5 37.5t69.5 59.5t47.5 81.5t30 92.5t16.5 104.5t7.5 105.5t1.5 107q0 123 -6 672q4 43 22.5 65.5t43.5 22.5q31 0 57 -29.5t29 -76.5v-367q23 -199 89.5 -334t139.5 -135q35 0 67.5 23t54 55.5t38 64.5t24.5 55l7 23q3 71 6.5 307.5t19.5 391.5
l96 -19v-18q0 -140 17 -487t31 -517q-41 -16 -76 -16q-30 0 -72 10l-14 119q1 -2 -5 -16t-20.5 -34.5t-36 -40.5t-56 -34t-75.5 -14q-53 0 -99 25t-74 61t-47.5 72.5t-28.5 61.5t-7 25q0 -592 -305 -592q-40 0 -86 15z" />
    <glyph glyph-name="mu" unicode="&#x3bc;" horiz-adv-x="960" 
d="M-123 -352v73q52 11 93.5 37.5t69.5 59.5t47.5 81.5t30 92.5t16.5 104.5t7.5 105.5t1.5 107q0 123 -6 672q4 43 22.5 65.5t43.5 22.5q31 0 57 -29.5t29 -76.5v-367q23 -199 89.5 -334t139.5 -135q35 0 67.5 23t54 55.5t38 64.5t24.5 55l7 23q3 71 6.5 307.5t19.5 391.5
l96 -19v-18q0 -140 17 -487t31 -517q-41 -16 -76 -16q-30 0 -72 10l-14 119q1 -2 -5 -16t-20.5 -34.5t-36 -40.5t-56 -34t-75.5 -14q-53 0 -99 25t-74 61t-47.5 72.5t-28.5 61.5t-7 25q0 -592 -305 -592q-40 0 -86 15z" />
    <glyph glyph-name="paragraph" unicode="&#xb6;" horiz-adv-x="1316" 
d="M961 891q0 234 8 422q-114 -4 -232 -4q25 -350 74 -1504q-19 -61 -70 -61q-36 0 -68.5 29.5t-41.5 70.5q4 109 4 553q0 55 -1 168t-1 170q-147 -47 -262 -47q-76 0 -135 24.5t-95.5 64.5t-59.5 96t-31.5 113t-8.5 122q0 154 82 236t239 90l836 43q50 -3 84.5 -37.5
t34.5 -73.5q0 -26 -20.5 -46t-59.5 -24l-172 19q25 -342 74 -1510q-19 -61 -70 -61q-36 0 -69 29.5t-42 70.5q5 136 5 553q0 82 -1 247t-1 247z" />
    <glyph glyph-name="periodcentered" unicode="&#xb7;" horiz-adv-x="423" 
d="M221 598q-21 0 -42 5t-44.5 18t-38 41.5t-14.5 68.5q0 61 30.5 97t90.5 36t99.5 -35t39.5 -112q0 -55 -32.5 -87t-88.5 -32z" />
    <glyph glyph-name="guillemotright" unicode="&#xbb;" horiz-adv-x="1087" 
d="M250 12l-29 62q463 212 699 393q-171 95 -322 199.5t-346 255.5l53 34q77 -40 349 -208.5t425 -270.5q8 -8 8 -28q0 -17 -6 -29q-472 -317 -831 -408zM55 201l-55 43q74 49 235.5 118t208.5 109q-163 75 -415 283l45 41q27 -25 70 -54t131.5 -79.5t147.5 -82.5t210 -114
q-57 -43 -154.5 -89t-259.5 -110t-164 -65z" />
    <glyph glyph-name="questiondown" unicode="&#xbf;" horiz-adv-x="772" 
d="M649 63l90 -20q33 -79 33 -149q0 -122 -93 -188t-228 -66q-203 0 -327 117t-124 321q0 63 18 114t47 86.5t64.5 67.5t72 64t67.5 68.5t52.5 89.5t26.5 118q19 62 70 62q37 0 69 -34t41 -93q0 -62 -21.5 -114t-56 -88.5t-76 -70t-83.5 -67.5t-76.5 -71.5t-56 -90.5
t-21.5 -117q0 -72 49 -128t119 -83t144 -27q95 0 159 47.5t64 137.5q0 52 -23 114zM453 854q-55 0 -91 47t-36 107q0 43 20.5 70.5t56.5 27.5q55 0 88 -46.5t33 -107.5q0 -43 -19 -70.5t-52 -27.5z" />
    <glyph glyph-name="Agrave" unicode="&#xc0;" horiz-adv-x="1077" 
d="M467 1450l151 -10q37 -160 101.5 -351t124 -340.5t127 -340.5t106.5 -347q0 -58 -19.5 -86t-49.5 -28q-26 0 -48.5 21t-31.5 59q-8 36 -18 72.5t-24 77t-23 66t-27.5 72.5t-24.5 64q-274 37 -516 63q-26 -71 -65.5 -234t-59.5 -224q-28 -35 -68 -35q-41 0 -71.5 36.5
t-30.5 90.5q64 234 232.5 687t234.5 687zM537 1247q-40 -231 -224 -708h226q141 0 254 -11q-207 444 -256 719zM594 1577l-29 -10q-26 -9 -48 -10t-38.5 7.5t-29 19.5t-24 31t-19.5 36t-19.5 40.5t-19.5 39.5l-93 170l160 -19z" />
    <glyph glyph-name="Aacute" unicode="&#xc1;" horiz-adv-x="1077" 
d="M467 1450l151 -10q37 -160 101.5 -351t124 -340.5t127 -340.5t106.5 -347q0 -58 -19.5 -86t-49.5 -28q-26 0 -48.5 21t-31.5 59q-8 36 -18 72.5t-24 77t-23 66t-27.5 72.5t-24.5 64q-274 37 -516 63q-26 -71 -65.5 -234t-59.5 -224q-28 -35 -68 -35q-41 0 -71.5 36.5
t-30.5 90.5q64 234 232.5 687t234.5 687zM537 1247q-40 -231 -224 -708h226q141 0 254 -11q-207 444 -256 719zM528 1567l-28 10l159 305l160 19l-92 -170q-8 -15 -19.5 -39.5t-19.5 -40.5t-19.5 -36t-24.5 -31t-29.5 -19.5t-38.5 -7.5t-48 10z" />
    <glyph glyph-name="Acircumflex" unicode="&#xc2;" horiz-adv-x="1077" 
d="M467 1450l151 -10q37 -160 101.5 -351t124 -340.5t127 -340.5t106.5 -347q0 -58 -19.5 -86t-49.5 -28q-26 0 -48.5 21t-31.5 59q-8 36 -18 72.5t-24 77t-23 66t-27.5 72.5t-24.5 64q-274 37 -516 63q-26 -71 -65.5 -234t-59.5 -224q-28 -35 -68 -35q-41 0 -71.5 36.5
t-30.5 90.5q64 234 232.5 687t234.5 687zM537 1247q-40 -231 -224 -708h226q141 0 254 -11q-207 444 -256 719zM520 1800l115 -8l201 -305l-19 -10q-26 -15 -46.5 -16t-44 14.5t-47.5 43.5t-61 80l-86 121l-149 -227l-145 -18q111 205 162.5 267t119.5 58z" />
    <glyph glyph-name="Adieresis" unicode="&#xc4;" horiz-adv-x="1077" 
d="M467 1450l151 -10q37 -160 101.5 -351t124 -340.5t127 -340.5t106.5 -347q0 -58 -19.5 -86t-49.5 -28q-26 0 -48.5 21t-31.5 59q-8 36 -18 72.5t-24 77t-23 66t-27.5 72.5t-24.5 64q-274 37 -516 63q-26 -71 -65.5 -234t-59.5 -224q-28 -35 -68 -35q-41 0 -71.5 36.5
t-30.5 90.5q64 234 232.5 687t234.5 687zM537 1247q-40 -231 -224 -708h226q141 0 254 -11q-207 444 -256 719zM330 1786q55 0 91 -47t36 -107q0 -42 -21 -70t-57 -28q-55 0 -88 46.5t-33 107.5q0 42 19.5 70t52.5 28zM676 1786q55 0 91 -47t36 -107q0 -42 -21 -70t-57 -28
q-55 0 -88 46.5t-33 107.5q0 42 19.5 70t52.5 28z" />
    <glyph glyph-name="Aring" unicode="&#xc5;" horiz-adv-x="1077" 
d="M375 1497q0 67 47.5 116.5t112.5 49.5q59 0 103 -44t44 -110q0 -71 -51 -125q47 -190 134.5 -426t175.5 -472.5t136 -424.5q0 -58 -19.5 -86t-49.5 -28q-26 0 -48.5 21t-31.5 59q-8 36 -18 72.5t-24 77t-23 66t-27.5 72.5t-24.5 64q-274 37 -516 63q-26 -71 -65.5 -234
t-59.5 -224q-28 -35 -68 -35q-41 0 -71.5 36.5t-30.5 90.5q63 232 223 662.5t221 633.5q-69 42 -69 125zM537 1247q-40 -231 -224 -708h226q141 0 254 -11q-207 444 -256 719zM532 1579q-34 0 -55.5 -23t-21.5 -55q0 -28 18.5 -52t58.5 -24q37 0 55.5 25t18.5 59
q0 28 -19.5 49t-54.5 21z" />
    <glyph glyph-name="AE" unicode="&#xc6;" horiz-adv-x="1716" 
d="M1622 90l20 -90q-78 0 -282 -7t-297 -7q-148 0 -203 14q10 124 19 410q-108 14 -246.5 17.5t-235.5 14.5q-23 -63 -113.5 -225.5t-113.5 -232.5q-28 -35 -68 -35q-39 0 -60.5 35t-21.5 92q62 140 169 326t207.5 344t220.5 359.5t198 358.5l840 -37l20 -90
q-90 -16 -358 -37.5t-285 -23.5q2 -52 10 -192t9 -230q69 -8 250 -23.5t225 -19.5l20 -90q-12 -1 -140.5 -14t-211.5 -19.5t-141 -7.5q0 -77 -3 -234t-3 -233q1 -17 10 -66q41 -4 135 -12t153.5 -13.5t138.5 -14t138 -17.5zM897 1303q-31 -48 -114.5 -174t-137 -208.5
t-117 -189t-98.5 -178.5q103 -5 268 -4.5t183 -3.5q1 38 4.5 329.5t11.5 428.5z" />
    <glyph glyph-name="Ccedilla" unicode="&#xc7;" horiz-adv-x="1081" 
d="M653 -348q0 53 -50 76.5t-122 9.5v196q-91 20 -169 100.5t-126.5 190.5t-76 230.5t-27.5 228.5q0 70 5.5 139.5t20 147.5t37 146.5t59.5 132.5t84 109.5t113.5 73t145.5 27.5q116 0 238.5 -40t211.5 -99l-79 -92q-153 114 -308 114q-72 0 -130 -25t-96 -64.5t-65.5 -99.5
t-42.5 -117.5t-23.5 -133t-10.5 -130.5t-2 -124q0 -55 13.5 -126.5t43.5 -150.5t71.5 -144.5t104 -108.5t133.5 -43q78 0 167 33.5t218 99.5q12 -17 22.5 -34.5t16 -28.5l15.5 -31t16 -33q-183 -124 -455 -150v-73q83 -19 141 -73t58 -132q0 -102 -67 -165.5t-175 -63.5
q-45 0 -92 14l16 112q84 -11 125 12t41 89z" />
    <glyph glyph-name="Egrave" unicode="&#xc8;" horiz-adv-x="937" 
d="M844 90l20 -90q-78 0 -282.5 -7t-296.5 -7q-148 0 -203 14q20 223 23.5 739.5t25.5 716.5q66 -6 361 -10t385 -19l20 -90q-90 -16 -358 -37.5t-285 -23.5q2 -46 9.5 -188.5t8.5 -233.5q69 -8 250 -23.5t226 -19.5l20 -90q-10 -1 -140.5 -14t-213 -19.5t-140.5 -7.5
q0 -88 -3 -267.5t-3 -262.5q32 -3 134.5 -12t159 -14.5t139.5 -15t143 -18.5zM594 1577l-29 -10q-26 -9 -48 -10t-38.5 7.5t-29 19.5t-24 31t-19.5 36t-19.5 40.5t-19.5 39.5l-93 170l160 -19z" />
    <glyph glyph-name="Eacute" unicode="&#xc9;" horiz-adv-x="937" 
d="M844 90l20 -90q-78 0 -282.5 -7t-296.5 -7q-148 0 -203 14q20 223 23.5 739.5t25.5 716.5q66 -6 361 -10t385 -19l20 -90q-90 -16 -358 -37.5t-285 -23.5q2 -46 9.5 -188.5t8.5 -233.5q69 -8 250 -23.5t226 -19.5l20 -90q-10 -1 -140.5 -14t-213 -19.5t-140.5 -7.5
q0 -88 -3 -267.5t-3 -262.5q32 -3 134.5 -12t159 -14.5t139.5 -15t143 -18.5zM688 1896l29 -10l-160 -305l-160 -18l92 170q8 15 19.5 39.5t19.5 40.5t19.5 35.5t24.5 30.5t29.5 19.5t38.5 7.5t48 -10z" />
    <glyph glyph-name="Ecircumflex" unicode="&#xca;" horiz-adv-x="937" 
d="M844 90l20 -90q-78 0 -282.5 -7t-296.5 -7q-148 0 -203 14q20 223 23.5 739.5t25.5 716.5q66 -6 361 -10t385 -19l20 -90q-90 -16 -358 -37.5t-285 -23.5q2 -46 9.5 -188.5t8.5 -233.5q69 -8 250 -23.5t226 -19.5l20 -90q-10 -1 -140.5 -14t-213 -19.5t-140.5 -7.5
q0 -88 -3 -267.5t-3 -262.5q32 -3 134.5 -12t159 -14.5t139.5 -15t143 -18.5zM479 1862l115 -9l201 -305l-19 -10q-26 -15 -46.5 -16t-44 15t-47 44t-60.5 80l-86 121l-150 -228l-145 -18q112 206 163 268t119 58z" />
    <glyph glyph-name="Edieresis" unicode="&#xcb;" horiz-adv-x="937" 
d="M844 90l20 -90h-37q-54 0 -249.5 -7t-292.5 -7q-148 0 -203 14q20 223 23.5 739.5t25.5 716.5q66 -6 361 -10t385 -19l20 -90q-90 -16 -358 -37.5t-285 -23.5q2 -46 9.5 -188.5t8.5 -233.5q69 -8 250 -23.5t226 -19.5l20 -90q-10 -1 -140.5 -14t-213 -19.5t-140.5 -7.5
q0 -88 -3 -267.5t-3 -262.5q32 -3 134.5 -12t159 -14.5t139.5 -15t143 -18.5zM258 1907q55 0 91 -47t36 -107q0 -42 -21 -70t-57 -28q-56 0 -88.5 46t-32.5 107q0 42 19.5 70.5t52.5 28.5zM686 1907q55 0 91 -47t36 -107q0 -42 -21 -70t-57 -28q-56 0 -88.5 46t-32.5 107
q0 42 19.5 70.5t52.5 28.5z" />
    <glyph glyph-name="Iacute" unicode="&#xcd;" horiz-adv-x="675" 
d="M47 -6l-4 98q17 3 54.5 9.5t61 11t56 8t57.5 4.5q2 68 2 203q0 180 -8.5 519.5t-9.5 448.5l-203 11l-12 114q82 -2 254 -2q174 0 260 -2l6 -98q-35 -15 -97.5 -18t-76.5 -5q6 -56 7.5 -281t1.5 -500t3 -390q31 -6 122.5 -15t113.5 -12l-4 -104q-59 2 -191 2
q-68 0 -201.5 -1t-191.5 -1zM242 1567l-29 10l160 305l159 19l-92 -170q-8 -15 -19.5 -39.5t-19.5 -40.5t-19.5 -36t-24 -31t-29 -19.5t-38.5 -7.5t-48 10z" />
    <glyph glyph-name="Icircumflex" unicode="&#xce;" horiz-adv-x="675" 
d="M47 -6l-4 98q17 3 54.5 9.5t61 11t56 8t57.5 4.5q2 68 2 203q0 180 -8.5 519.5t-9.5 448.5l-203 11l-12 114q82 -2 254 -2q174 0 260 -2l6 -98q-35 -15 -97.5 -18t-76.5 -5q6 -56 7.5 -281t1.5 -500t3 -390q31 -6 122.5 -15t113.5 -12l-4 -104q-59 2 -191 2
q-68 0 -201.5 -1t-191.5 -1zM295 1862l115 -9l200 -305l-18 -10q-26 -15 -46.5 -16t-44.5 15t-47.5 44t-60.5 80l-86 121l-149 -228l-146 -18q111 205 163 267.5t120 58.5z" />
    <glyph glyph-name="Idieresis" unicode="&#xcf;" horiz-adv-x="675" 
d="M47 -6l-4 98q17 3 54.5 9.5t61 11t56 8t57.5 4.5q2 68 2 203q0 180 -8.5 519.5t-9.5 448.5l-203 11l-12 114q82 -2 254 -2q174 0 260 -2l6 -98q-35 -15 -97.5 -18t-76.5 -5q6 -56 7.5 -281t1.5 -500t3 -390q31 -6 122.5 -15t113.5 -12l-4 -104q-59 2 -191 2
q-68 0 -201.5 -1t-191.5 -1zM94 1804q55 0 91 -46.5t36 -106.5q0 -43 -21 -71t-57 -28q-55 0 -87.5 46.5t-32.5 107.5q0 43 19 70.5t52 27.5zM440 1804q55 0 91 -46.5t36 -106.5q0 -43 -21 -71t-57 -28q-55 0 -87.5 46.5t-32.5 107.5q0 43 19 70.5t52 27.5z" />
    <glyph glyph-name="Ntilde" unicode="&#xd1;" horiz-adv-x="1124" 
d="M82 55l27 1385h106q181 -357 655 -1241v157q0 583 23 1086l113 -23q22 -408 36 -1429q-46 -19 -88 -19q-71 0 -143 41q-121 187 -300.5 547.5t-258.5 499.5q2 -135 3 -495.5t7 -547.5q-19 -61 -69 -61q-36 0 -69 29.5t-42 70.5zM645 1620q36 0 55 15.5t39 60.5l99 -45
q-17 -50 -42.5 -84t-53.5 -49t-51.5 -20t-47.5 -3q-30 2 -68.5 24t-74.5 45.5t-58 26.5q-44 4 -94 -73l-86 45q33 98 74 127.5t108 27.5q37 -1 105 -49.5t96 -48.5z" />
    <glyph glyph-name="Oacute" unicode="&#xd3;" horiz-adv-x="1073" 
d="M84 670q0 274 22 410q60 372 315 418q37 7 79 7q90 0 162.5 -25.5t123 -67t88 -104t59.5 -127.5t35.5 -146.5t18 -152.5t4.5 -153q0 -80 -2.5 -143t-12 -145t-25.5 -143.5t-46 -125t-71.5 -104.5t-103 -67t-138.5 -26q-123 0 -212.5 30t-146.5 84t-90 142.5t-46 192
t-13 246.5zM848 653q0 51 -4 107.5t-15 127t-27.5 135t-45 127.5t-64.5 109t-88.5 74.5t-114.5 28.5q-61 0 -111.5 -62.5t-80 -157t-45.5 -194t-16 -184.5q0 -238 20 -348q47 -255 231 -298q33 -8 70 -9q75 4 132.5 50t91 123t50.5 170.5t17 200.5zM467 1628l-29 10l160 306
l160 18l-92 -170q-8 -15 -19.5 -39.5t-19.5 -40.5t-19.5 -36t-24.5 -31t-29.5 -19.5t-38.5 -7.5t-48 10z" />
    <glyph glyph-name="Ocircumflex" unicode="&#xd4;" horiz-adv-x="1073" 
d="M84 670q0 274 22 410q60 372 315 418q37 7 79 7q90 0 162.5 -25.5t123 -67t88 -104t59.5 -127.5t35.5 -146.5t18 -152.5t4.5 -153q0 -80 -2.5 -143t-12 -145t-25.5 -143.5t-46 -125t-71.5 -104.5t-103 -67t-138.5 -26q-123 0 -212.5 30t-146.5 84t-90 142.5t-46 192
t-13 246.5zM848 653q0 51 -4 107.5t-15 127t-27.5 135t-45 127.5t-64.5 109t-88.5 74.5t-114.5 28.5q-61 0 -111.5 -62.5t-80 -157t-45.5 -194t-16 -184.5q0 -238 20 -348q47 -255 231 -298q33 -8 70 -9q75 4 132.5 50t91 123t50.5 170.5t17 200.5zM479 1903l115 -9
l201 -305l-19 -10q-26 -15 -46.5 -16t-44 15t-47 44t-60.5 80l-86 121l-150 -228l-145 -18q112 206 163 268t119 58z" />
    <glyph glyph-name="Odieresis" unicode="&#xd6;" horiz-adv-x="1073" 
d="M84 670q0 274 22 410q60 372 315 418q37 7 79 7q90 0 162.5 -25.5t123 -67t88 -104t59.5 -127.5t35.5 -146.5t18 -152.5t4.5 -153q0 -80 -2.5 -143t-12 -145t-25.5 -143.5t-46 -125t-71.5 -104.5t-103 -67t-138.5 -26q-123 0 -212.5 30t-146.5 84t-90 142.5t-46 192
t-13 246.5zM848 653q0 51 -4 107.5t-15 127t-27.5 135t-45 127.5t-64.5 109t-88.5 74.5t-114.5 28.5q-61 0 -111.5 -62.5t-80 -157t-45.5 -194t-16 -184.5q0 -238 20 -348q47 -255 231 -298q33 -8 70 -9q75 4 132.5 50t91 123t50.5 170.5t17 200.5zM258 1866q55 0 91 -47
t36 -107q0 -42 -21 -70t-57 -28q-56 0 -88.5 46t-32.5 107q0 43 19.5 71t52.5 28zM686 1866q55 0 91 -47t36 -107q0 -42 -21 -70t-57 -28q-56 0 -88.5 46t-32.5 107q0 43 19.5 71t52.5 28z" />
    <glyph glyph-name="Ugrave" unicode="&#xd9;" horiz-adv-x="1075" 
d="M850 1485l119 -10q24 -337 24 -623q0 -185 -10 -420q-3 -70 -9.5 -123t-21 -107t-37 -92t-57.5 -72t-82.5 -54.5t-113 -32.5t-148.5 -12q-65 0 -118.5 8.5t-93.5 24.5t-70.5 39.5t-52 52t-36.5 64t-23.5 73.5t-14 83t-8.5 90t-5 96v5q-10 242 -10 416q0 145 12 579
l111 -24q4 -185 22 -526.5t23 -483.5q2 -49 3.5 -78t8 -70.5t17 -66.5t29.5 -53.5t45 -43.5t65.5 -25.5t89.5 -10.5q70 0 121 9t84.5 34t53.5 47.5t32 71t17 82t11 102.5q15 173 17 559.5t6 491.5zM614 1516l-28 -11q-26 -9 -48 -10t-38.5 7.5t-29.5 19.5t-24.5 31t-19.5 36
t-19.5 40.5t-19.5 39.5l-92 170l160 -18z" />
    <glyph glyph-name="Uacute" unicode="&#xda;" horiz-adv-x="1075" 
d="M850 1485l119 -10q24 -337 24 -623q0 -185 -10 -420q-3 -70 -9.5 -123t-21 -107t-37 -92t-57.5 -72t-82.5 -54.5t-113 -32.5t-148.5 -12q-65 0 -118.5 8.5t-93.5 24.5t-70.5 39.5t-52 52t-36.5 64t-23.5 73.5t-14 83t-8.5 90t-5 96v5q-10 242 -10 416q0 145 12 579
l111 -24q4 -185 22 -526.5t23 -483.5q2 -49 3.5 -78t8 -70.5t17 -66.5t29.5 -53.5t45 -43.5t65.5 -25.5t89.5 -10.5q70 0 121 9t84.5 34t53.5 47.5t32 71t17 82t11 102.5q15 173 17 559.5t6 491.5zM487 1505l-28 11l159 305l160 18l-92 -170q-8 -15 -19.5 -39.5t-19.5 -40.5
t-19.5 -36t-24.5 -31t-29.5 -19.5t-38.5 -7.5t-48 10z" />
    <glyph glyph-name="Ucircumflex" unicode="&#xdb;" horiz-adv-x="1075" 
d="M850 1485l119 -10q24 -337 24 -623q0 -185 -10 -420q-3 -70 -9.5 -123t-21 -107t-37 -92t-57.5 -72t-82.5 -54.5t-113 -32.5t-148.5 -12q-65 0 -118.5 8.5t-93.5 24.5t-70.5 39.5t-52 52t-36.5 64t-23.5 73.5t-14 83t-8.5 90t-5 96v5q-10 242 -10 416q0 145 12 579
l111 -24q4 -185 22 -526.5t23 -483.5q2 -49 3.5 -78t8 -70.5t17 -66.5t29.5 -53.5t45 -43.5t65.5 -25.5t89.5 -10.5q70 0 121 9t84.5 34t53.5 47.5t32 71t17 82t11 102.5q15 173 17 559.5t6 491.5zM500 1882l114 -8l201 -305l-18 -10q-26 -15 -46.5 -16t-44 14.5t-47.5 43.5
t-61 80l-86 121l-150 -227l-145 -19q111 205 163 267.5t120 58.5z" />
    <glyph glyph-name="Udieresis" unicode="&#xdc;" horiz-adv-x="1075" 
d="M850 1485l119 -10q24 -337 24 -623q0 -185 -10 -420q-3 -70 -9.5 -123t-21 -107t-37 -92t-57.5 -72t-82.5 -54.5t-113 -32.5t-148.5 -12q-65 0 -118.5 8.5t-93.5 24.5t-70.5 39.5t-52 52t-36.5 64t-23.5 73.5t-14 83t-8.5 90t-5 96v5q-10 242 -10 416q0 145 12 579
l111 -24q4 -185 22 -526.5t23 -483.5q2 -49 3.5 -78t8 -70.5t17 -66.5t29.5 -53.5t45 -43.5t65.5 -25.5t89.5 -10.5q70 0 121 9t84.5 34t53.5 47.5t32 71t17 82t11 102.5q15 173 17 559.5t6 491.5zM319 1784q55 0 91 -47t36 -107q0 -43 -20.5 -70.5t-56.5 -27.5
q-55 0 -88 46.5t-33 107.5q0 43 19 70.5t52 27.5zM645 1784q55 0 91 -47t36 -107q0 -42 -21 -70t-57 -28q-55 0 -88 46.5t-33 107.5q0 42 19.5 70t52.5 28z" />
    <glyph glyph-name="germandbls" unicode="&#xdf;" horiz-adv-x="1198" 
d="M961 1149q0 -49 -17 -89t-44 -66.5t-59.5 -49.5t-65 -43t-59.5 -41t-44 -49t-17 -61q0 -31 25 -56.5t64.5 -45.5t88 -41t96.5 -48.5t87.5 -61.5t64.5 -87t25 -119q0 -82 -40 -155t-118.5 -120.5t-179.5 -48.5q-110 0 -205 46.5t-151 115.5l57 61q28 -11 73 -32t66 -29
t59.5 -15.5t82.5 -7.5q95 0 154 42t59 118q0 58 -24 102.5t-62.5 72t-84.5 50t-92.5 45t-85 49t-62.5 69t-24 98.5q0 60 21.5 106t53.5 72t69.5 52t69.5 47t53.5 56t21.5 80q0 67 -55.5 113.5t-157.5 46.5q-169 0 -262.5 -81.5t-91.5 -209.5l12 -1007q-11 -38 -33 -58
t-47 -20q-27 0 -50 21.5t-30 56.5q0 21 8.5 353.5t8.5 668.5q0 184 131.5 299.5t351.5 115.5q164 0 261.5 -93t97.5 -222z" />
    <glyph glyph-name="agrave" unicode="&#xe0;" horiz-adv-x="823" 
d="M154 864l-39 103q52 52 130.5 82t157.5 30q338 0 338 -583q0 -79 -8 -235t-8 -234q-17 -64 -63 -64q-34 0 -65.5 37t-31.5 80q0 14 2 20q-58 -56 -127 -88t-137 -32q-106 0 -184 76.5t-78 187.5q0 122 66.5 234.5t176.5 181.5t230 69q15 0 51 -4q-16 233 -184 233
q-100 0 -227 -94zM571 238q4 140 4 213q0 61 -4 167h-16q-91 -1 -176.5 -46.5t-142 -129.5t-56.5 -182q0 -63 39 -101t94 -38q40 0 92 21.5t83.5 41t82.5 54.5zM492 1208l-29 -10q-26 -9 -48 -10t-38.5 7.5t-29.5 19.5t-24.5 31t-19.5 36t-19.5 40.5t-19.5 39.5l-92 170
l160 -19z" />
    <glyph glyph-name="aacute" unicode="&#xe1;" horiz-adv-x="823" 
d="M154 864l-39 103q52 52 130.5 82t157.5 30q338 0 338 -583q0 -79 -8 -235t-8 -234q-17 -64 -63 -64q-34 0 -65.5 37t-31.5 80q0 14 2 20q-58 -56 -127 -88t-137 -32q-106 0 -184 76.5t-78 187.5q0 122 66.5 234.5t176.5 181.5t230 69q15 0 51 -4q-16 233 -184 233
q-100 0 -227 -94zM571 238q4 140 4 213q0 61 -4 167h-16q-91 -1 -176.5 -46.5t-142 -129.5t-56.5 -182q0 -63 39 -101t94 -38q40 0 92 21.5t83.5 41t82.5 54.5zM406 1198l-29 10l160 305l159 19l-92 -170q-8 -15 -19.5 -39.5t-19.5 -40.5t-19.5 -36t-24 -31t-29 -19.5
t-38.5 -7.5t-48 10z" />
    <glyph glyph-name="acircumflex" unicode="&#xe2;" horiz-adv-x="823" 
d="M154 864l-39 103q52 52 130.5 82t157.5 30q338 0 338 -583q0 -79 -8 -235t-8 -234q-17 -64 -63 -64q-34 0 -65.5 37t-31.5 80q0 14 2 20q-58 -56 -127 -88t-137 -32q-106 0 -184 76.5t-78 187.5q0 122 66.5 234.5t176.5 181.5t230 69q15 0 51 -4q-16 233 -184 233
q-100 0 -227 -94zM571 238q4 140 4 213q0 61 -4 167h-16q-91 -1 -176.5 -46.5t-142 -129.5t-56.5 -182q0 -63 39 -101t94 -38q40 0 92 21.5t83.5 41t82.5 54.5zM391 1481l115 -8l201 -306l-19 -10q-26 -15 -46.5 -16t-44.5 15t-47.5 44t-60.5 80l-86 121l-149 -227l-145 -19
q112 206 163 268t119 58z" />
    <glyph glyph-name="adieresis" unicode="&#xe4;" horiz-adv-x="823" 
d="M154 864l-39 103q52 52 130.5 82t157.5 30q338 0 338 -583q0 -79 -8 -235t-8 -234q-17 -64 -63 -64q-34 0 -65.5 37t-31.5 80q0 14 2 20q-58 -56 -127 -88t-137 -32q-106 0 -184 76.5t-78 187.5q0 122 66.5 234.5t176.5 181.5t230 69q15 0 51 -4q-16 233 -184 233
q-100 0 -227 -94zM571 238q4 140 4 213q0 61 -4 167h-16q-91 -1 -176.5 -46.5t-142 -129.5t-56.5 -182q0 -63 39 -101t94 -38q40 0 92 21.5t83.5 41t82.5 54.5zM170 1434q55 0 91 -47t36 -107q0 -42 -21 -70t-57 -28q-56 0 -88.5 48t-32.5 105q0 43 19.5 71t52.5 28z
M582 1434q55 0 91 -47t36 -107q0 -42 -21 -70t-57 -28q-56 0 -88.5 48t-32.5 105q0 43 19.5 71t52.5 28z" />
    <glyph glyph-name="aring" unicode="&#xe5;" horiz-adv-x="823" 
d="M154 864l-39 103q52 52 130.5 82t157.5 30q338 0 338 -583q0 -79 -8 -235t-8 -234q-17 -64 -63 -64q-34 0 -65.5 37t-31.5 80q0 14 2 20q-58 -56 -127 -88t-137 -32q-106 0 -184 76.5t-78 187.5q0 122 66.5 234.5t176.5 181.5t230 69q15 0 51 -4q-16 233 -184 233
q-100 0 -227 -94zM571 238q4 140 4 213q0 61 -4 167h-16q-91 -1 -176.5 -46.5t-142 -129.5t-56.5 -182q0 -63 39 -101t94 -38q40 0 92 21.5t83.5 41t82.5 54.5zM250 1298q0 67 47.5 116.5t112.5 49.5q59 0 103 -43.5t44 -109.5q0 -64 -41.5 -114t-105.5 -50q-62 0 -111 42.5
t-49 108.5zM408 1380q-34 0 -56 -22.5t-22 -54.5q0 -28 21 -52t57 -24q37 0 55 24.5t18 59.5q0 28 -19 48.5t-54 20.5z" />
    <glyph glyph-name="ae" unicode="&#xe6;" horiz-adv-x="1386" 
d="M1327 195l19 -89q-12 -5 -78.5 -33t-101 -39.5t-107.5 -24.5t-150 -13q-158 0 -245 151q-147 -167 -340 -167q-132 0 -207.5 74t-75.5 190q0 77 27.5 140t75.5 106t114.5 73t143 44t163.5 16q0 170 -41 252.5t-143 82.5q-100 0 -227 -94l-39 103q52 52 130.5 82t157.5 30
q193 0 267 -190q113 158 364 158q108 0 190.5 -69t82.5 -179q0 -225 -442 -285q-50 -7 -142 -16q2 -69 13.5 -127.5t35 -113.5t67 -86.5t103.5 -31.5q73 0 161.5 13.5t153.5 28t70 14.5zM571 238q4 140 4 172q0 25 -0.5 34.5t-1.5 20t-2 31.5h-16q-61 -1 -109 -5.5
t-100 -19.5t-86.5 -39.5t-57 -68.5t-22.5 -103q0 -66 45.5 -102.5t128.5 -36.5q86 0 133.5 31t83.5 86zM731 623q148 10 273.5 59.5t150.5 103.5q-15 66 -37.5 95.5t-70.5 29.5q-120 0 -209.5 -81.5t-106.5 -206.5z" />
    <glyph glyph-name="ccedilla" unicode="&#xe7;" horiz-adv-x="800" 
d="M756 991l-11 -86q-89 13 -143 13q-85 0 -152.5 -31.5t-110 -83t-71 -122t-40 -143t-11.5 -151.5q0 -50 4.5 -90.5t18 -84t36.5 -72.5t62.5 -47.5t93.5 -18.5q89 0 223 35q43 16 68 16t38 -24.5t19 -88.5q-132 -43 -297 -51v-82q46 -10 75.5 -20.5t61 -30.5t47 -53
t15.5 -80q0 -74 -68.5 -131.5t-173.5 -57.5q-41 0 -92 15l17 112q165 -21 165 80q0 39 -51 59t-121 7v180q-145 13 -210.5 124.5t-65.5 326.5q0 110 11 198t41 171t79.5 138t129.5 88t187 33q151 0 226 -47z" />
    <glyph glyph-name="egrave" unicode="&#xe8;" horiz-adv-x="907" 
d="M889 195l18 -89q-86 -33 -260 -71.5t-258 -38.5q-70 0 -125.5 39t-88.5 98t-55 135.5t-30 145t-8 133.5q0 113 24.5 201.5t76.5 157t141 105t211 36.5q107 0 189.5 -69t82.5 -179q0 -45 -18.5 -82.5t-48.5 -63.5t-75 -48t-89 -35t-99.5 -25t-99 -18.5t-95 -14.5
t-79.5 -14q2 -49 5.5 -85t12.5 -81t25.5 -76.5t41.5 -59.5t64 -42.5t90 -14.5q73 0 177 13.5t185 28t85 14.5zM211 623q100 29 232 77t212 86q-15 66 -37.5 95.5t-70.5 29.5q-122 0 -220.5 -82.5t-115.5 -205.5zM573 1167l-28 -10q-26 -9 -48 -10t-38.5 7.5t-29.5 19.5
t-24.5 31t-19.5 36t-19.5 40.5t-19.5 39.5l-92 170l160 -18z" />
    <glyph glyph-name="eacute" unicode="&#xe9;" horiz-adv-x="907" 
d="M889 195l18 -89q-86 -33 -260 -71.5t-258 -38.5q-70 0 -125.5 39t-88.5 98t-55 135.5t-30 145t-8 133.5q0 113 24.5 201.5t76.5 157t141 105t211 36.5q107 0 189.5 -69t82.5 -179q0 -45 -18.5 -82.5t-48.5 -63.5t-75 -48t-89 -35t-99.5 -25t-99 -18.5t-95 -14.5
t-79.5 -14q2 -49 5.5 -85t12.5 -81t25.5 -76.5t41.5 -59.5t64 -42.5t90 -14.5q73 0 177 13.5t185 28t85 14.5zM211 623q100 29 232 77t212 86q-15 66 -37.5 95.5t-70.5 29.5q-122 0 -220.5 -82.5t-115.5 -205.5zM668 1466l28 -10l-159 -305l-160 -18l92 170q8 15 19.5 39.5
t19.5 40.5t19.5 35.5t24.5 30.5t29.5 19.5t38.5 7.5t48 -10z" />
    <glyph glyph-name="ecircumflex" unicode="&#xea;" horiz-adv-x="907" 
d="M889 195l18 -89q-86 -33 -260 -71.5t-258 -38.5q-70 0 -125.5 39t-88.5 98t-55 135.5t-30 145t-8 133.5q0 113 24.5 201.5t76.5 157t141 105t211 36.5q107 0 189.5 -69t82.5 -179q0 -45 -18.5 -82.5t-48.5 -63.5t-75 -48t-89 -35t-99.5 -25t-99 -18.5t-95 -14.5
t-79.5 -14q2 -49 5.5 -85t12.5 -81t25.5 -76.5t41.5 -59.5t64 -42.5t90 -14.5q73 0 177 13.5t185 28t85 14.5zM211 623q100 29 232 77t212 86q-15 66 -37.5 95.5t-70.5 29.5q-122 0 -220.5 -82.5t-115.5 -205.5zM453 1440l114 -8l201 -306l-18 -10q-26 -15 -46.5 -16
t-44.5 15t-47.5 44t-60.5 80l-86 121l-150 -227l-145 -19q111 205 163 267.5t120 58.5z" />
    <glyph glyph-name="edieresis" unicode="&#xeb;" horiz-adv-x="907" 
d="M889 195l18 -89q-86 -33 -260 -71.5t-258 -38.5q-70 0 -125.5 39t-88.5 98t-55 135.5t-30 145t-8 133.5q0 113 24.5 201.5t76.5 157t141 105t211 36.5q107 0 189.5 -69t82.5 -179q0 -45 -18.5 -82.5t-48.5 -63.5t-75 -48t-89 -35t-99.5 -25t-99 -18.5t-95 -14.5
t-79.5 -14q4 -51 7.5 -79.5t11 -72t17.5 -68.5t28 -55t41 -46t57 -27t77 -11q73 0 177 13.5t185 28t85 14.5zM211 623q100 29 232 77t212 86q-15 66 -37.5 95.5t-70.5 29.5q-122 0 -220.5 -82.5t-115.5 -205.5zM231 1434q55 0 91 -47t36 -107q0 -43 -20.5 -70.5t-56.5 -27.5
q-56 0 -88.5 48t-32.5 105q0 43 19 71t52 28zM643 1434q55 0 91 -47t36 -107q0 -42 -21 -70t-57 -28q-56 0 -88.5 48t-32.5 105q0 43 19.5 71t52.5 28z" />
    <glyph glyph-name="iacute" unicode="&#xed;" horiz-adv-x="362" 
d="M127 1028l90 -20q16 -166 28.5 -520.5t16.5 -430.5q-19 -61 -69 -61q-36 0 -69 29.5t-42 70.5q4 74 16.5 422t28.5 510zM119 1157l-29 10l160 306l160 18l-93 -170q-8 -15 -19.5 -39.5t-19.5 -40.5t-19.5 -36t-24 -31t-29 -19.5t-38.5 -7.5t-48 10z" />
    <glyph glyph-name="icircumflex" unicode="&#xee;" horiz-adv-x="362" 
d="M127 1028l90 -20q16 -166 28.5 -520.5t16.5 -430.5q-19 -61 -69 -61q-36 0 -69 29.5t-42 70.5q4 74 16.5 422t28.5 510zM164 1399l115 -8l200 -306l-18 -10q-26 -15 -46.5 -16t-44.5 15t-47.5 44t-60.5 80l-86 121l-149 -227l-146 -19q111 205 163 267.5t120 58.5z" />
    <glyph glyph-name="idieresis" unicode="&#xef;" horiz-adv-x="362" 
d="M127 1028l90 -20q16 -166 28.5 -520.5t16.5 -430.5q-19 -61 -69 -61q-36 0 -69 29.5t-42 70.5q4 74 16.5 422t28.5 510zM-31 1407q55 0 91 -47t36 -107q0 -42 -21 -70t-57 -28q-55 0 -87.5 46.5t-32.5 107.5q0 43 19 70.5t52 27.5zM297 1407q55 0 91 -47t36 -107
q0 -42 -21 -70t-57 -28q-55 0 -88 46.5t-33 107.5q0 42 19.5 70t52.5 28z" />
    <glyph glyph-name="ntilde" unicode="&#xf1;" horiz-adv-x="847" 
d="M217 801l8 -793q-31 -16 -71 -16q-32 0 -72 10q5 122 7.5 495t16.5 550l91 -21l6 -113q48 52 112 82.5t131 30.5q52 0 86.5 -5.5t69 -24t55 -48.5t40.5 -85t30.5 -127t19.5 -181t13 -241t6 -312q-12 -4 -45 -4q-73 0 -113 18q-8 33 -8 107q0 37 3 141.5t3 163.5
q0 61 -3 111.5t-10 105t-20.5 95.5t-33.5 74.5t-51 52t-70 18.5q-50 0 -81 -4t-53.5 -17t-33.5 -24t-33 -39zM504 1278q36 0 55 15.5t39 60.5l98 -45q-33 -94 -86.5 -127t-107.5 -29q-30 2 -68.5 24t-74.5 45.5t-58 26.5q-44 4 -94 -73l-86 45q33 98 74 127.5t108 27.5
q37 -1 105 -49.5t96 -48.5z" />
    <glyph glyph-name="oacute" unicode="&#xf3;" 
d="M82 426q0 61 9.5 136.5t33.5 166t59.5 163.5t94.5 122t131 49q79 0 149 -33.5t119 -89.5t85 -128.5t53.5 -151t17.5 -156.5q0 -70 -11 -141t-38 -145t-67 -132t-105 -97.5t-146 -45.5q-185 24 -285 157t-100 326zM422 958q-44 -5 -80 -53.5t-56.5 -115t-34.5 -146.5
t-19 -141t-5 -105q0 -111 70 -206t156 -95q61 0 111.5 48.5t79 120t43.5 142.5t15 128q0 164 -74 285t-206 138zM647 1507l29 -10l-160 -305l-160 -18l93 169q8 15 19.5 39.5t19.5 40.5t19.5 36t24 31t29 19.5t38.5 7.5t48 -10z" />
    <glyph glyph-name="ocircumflex" unicode="&#xf4;" 
d="M82 426q0 61 9.5 136.5t33.5 166t59.5 163.5t94.5 122t131 49q79 0 149 -33.5t119 -89.5t85 -128.5t53.5 -151t17.5 -156.5q0 -70 -11 -141t-38 -145t-67 -132t-105 -97.5t-146 -45.5q-185 24 -285 157t-100 326zM422 958q-44 -5 -80 -53.5t-56.5 -115t-34.5 -146.5
t-19 -141t-5 -105q0 -111 70 -206t156 -95q61 0 111.5 48.5t79 120t43.5 142.5t15 128q0 164 -74 285t-206 138zM416 1460l114 -8l201 -305l-18 -10q-26 -15 -46.5 -16t-44.5 15t-47.5 44t-60.5 80l-86 120l-149 -227l-146 -18q111 205 163 267t120 58z" />
    <glyph glyph-name="odieresis" unicode="&#xf6;" 
d="M82 426q0 61 9.5 136.5t33.5 166t59.5 163.5t94.5 122t131 49q79 0 149 -33.5t119 -89.5t85 -128.5t53.5 -151t17.5 -156.5q0 -70 -11 -141t-38 -145t-67 -132t-105 -97.5t-146 -45.5q-185 24 -285 157t-100 326zM422 958q-44 -5 -80 -53.5t-56.5 -115t-34.5 -146.5
t-19 -141t-5 -105q0 -111 70 -206t156 -95q61 0 111.5 48.5t79 120t43.5 142.5t15 128q0 164 -74 285t-206 138zM190 1413q55 0 91 -46.5t36 -106.5q0 -43 -20.5 -71t-56.5 -28q-56 0 -88.5 48.5t-32.5 105.5q0 43 19 70.5t52 27.5zM602 1413q55 0 91 -46.5t36 -106.5
q0 -43 -21 -71t-57 -28q-56 0 -88.5 48.5t-32.5 105.5q0 42 19.5 70t52.5 28z" />
    <glyph glyph-name="ugrave" unicode="&#xf9;" horiz-adv-x="901" 
d="M676 1004l96 -19v-18q0 -138 16.5 -463t30.5 -498q-41 -16 -76 -16q-29 0 -71 10l-17 51q-129 -71 -243 -71q-62 0 -112.5 21t-84 55t-58.5 84.5t-39 101t-22.5 114t-11 115t-2.5 111.5q0 260 33 471l90 -21q12 -58 12 -143q0 -45 -4 -152.5t-4 -165.5q0 -76 5 -135
t21 -119.5t43 -100t73 -64.5t108 -25q95 0 188 39q3 67 8 375t21 463zM553 1065l-29 -10q-26 -9 -48 -10t-38.5 7.5t-29 19.5t-24 31t-19.5 36t-19.5 40.5t-19.5 39.5l-93 170l160 -19z" />
    <glyph glyph-name="uacute" unicode="&#xfa;" horiz-adv-x="901" 
d="M676 1004l96 -19v-18q0 -138 16.5 -463t30.5 -498q-41 -16 -76 -16q-29 0 -71 10l-17 51q-129 -71 -243 -71q-62 0 -112.5 21t-84 55t-58.5 84.5t-39 101t-22.5 114t-11 115t-2.5 111.5q0 260 33 471l90 -21q12 -58 12 -143q0 -45 -4 -152.5t-4 -165.5q0 -76 5 -135
t21 -119.5t43 -100t73 -64.5t108 -25q95 0 188 39q3 67 8 375t21 463zM385 1075l-29 10l160 306l160 18l-92 -170q-8 -15 -19.5 -39.5t-19.5 -40.5t-19.5 -36t-24.5 -31t-29.5 -19.5t-38.5 -7.5t-48 10z" />
    <glyph glyph-name="ucircumflex" unicode="&#xfb;" horiz-adv-x="901" 
d="M676 1004l96 -19v-18q0 -138 16.5 -463t30.5 -498q-41 -16 -76 -16q-29 0 -71 10l-17 51q-129 -71 -243 -71q-62 0 -112.5 21t-84 55t-58.5 84.5t-39 101t-22.5 114t-11 115t-2.5 111.5q0 260 33 471l90 -21q12 -58 12 -143q0 -45 -4 -152.5t-4 -165.5q0 -76 5 -135
t21 -119.5t43 -100t73 -64.5t108 -25q95 0 188 39q3 67 8 375t21 463zM432 1440l115 -8l201 -306l-19 -10q-26 -15 -46.5 -16t-44.5 15t-47.5 44t-60.5 80l-86 121l-149 -227l-145 -19q112 206 163 268t119 58z" />
    <glyph glyph-name="udieresis" unicode="&#xfc;" horiz-adv-x="901" 
d="M676 1004l96 -19v-18q0 -138 16.5 -463t30.5 -498q-41 -16 -76 -16q-29 0 -71 10l-17 51q-129 -71 -243 -71q-62 0 -112.5 21t-84 55t-58.5 84.5t-39 101t-22.5 114t-11 115t-2.5 111.5q0 260 33 471l90 -21q12 -58 12 -143q0 -45 -4 -152.5t-4 -165.5q0 -76 5 -135
t21 -119.5t43 -100t73 -64.5t108 -25q95 0 188 39q3 67 8 375t21 463zM272 1352q55 0 91 -47t36 -107q0 -43 -20.5 -70.5t-56.5 -27.5q-56 0 -88.5 48t-32.5 105q0 43 19 71t52 28zM582 1352q55 0 91 -47t36 -107q0 -42 -21 -70t-57 -28q-56 0 -88.5 48t-32.5 105
q0 43 19.5 71t52.5 28z" />
    <glyph glyph-name="ydieresis" unicode="&#xff;" horiz-adv-x="874" 
d="M225 -592l-123 70q38 66 65.5 115t55.5 101.5t44.5 85t56 108.5t67.5 130q-85 76 -152 203t-106.5 273t-61.5 280.5t-30 263.5l115 -6q12 -56 34.5 -178t39 -197t45.5 -176t70 -183.5t95 -150.5q279 541 279 877v23q6 -1 22.5 -3t27 -4t27.5 -5.5t36.5 -10.5t41.5 -16
q-22 -142 -60.5 -289.5t-94.5 -293.5t-109.5 -270.5t-128.5 -271.5t-127 -242.5t-129 -232.5zM252 1372q55 0 91 -46.5t36 -106.5q0 -43 -21 -71t-57 -28q-56 0 -88.5 48.5t-32.5 105.5q0 42 19.5 70t52.5 28zM561 1372q55 0 91 -46.5t36 -106.5q0 -43 -21 -71t-57 -28
q-56 0 -88.5 48.5t-32.5 105.5q0 42 19.5 70t52.5 28z" />
    <glyph glyph-name="OE" unicode="&#x152;" horiz-adv-x="1652" 
d="M1559 90l20 -90q-77 0 -282 -7t-298 -7q-114 0 -186 10q-195 1 -331.5 43.5t-220 128.5t-121.5 208.5t-38 293.5q0 409 185.5 595.5t578.5 186.5q39 -2 334.5 -5.5t390.5 -19.5l21 -90q-90 -16 -358 -37.5t-285 -23.5q2 -46 9.5 -188.5t8.5 -233.5q69 -8 250 -23.5
t225 -19.5l21 -90q-10 -1 -140.5 -14t-213 -19.5t-140.5 -7.5q0 -88 -3 -267.5t-3 -262.5q32 -3 134.5 -12t159 -14.5t139.5 -15t143 -18.5zM254 764q0 -234 53.5 -369t170.5 -197.5t321 -68.5l26 1192q-281 -7 -426 -150t-145 -407z" />
    <glyph glyph-name="oe" unicode="&#x153;" horiz-adv-x="1439" 
d="M1360 174l18 -88q-99 -38 -220.5 -74.5t-174.5 -36.5q-115 0 -180 50.5t-98 146.5q-17 -96 -103.5 -159.5t-195.5 -69.5q-189 25 -277 147.5t-88 355.5q0 277 94.5 447t253.5 170q130 0 215.5 -57t110.5 -144q55 81 149 133t223 52q106 0 189.5 -66t83.5 -162
q0 -40 -15.5 -73.5t-49.5 -59.5t-69.5 -45.5t-95 -39.5t-106 -33.5t-122 -34t-124.5 -35.5q18 -379 258 -379q45 0 119 13t135.5 27t69.5 15zM401 938q-65 -9 -115 -87.5t-75 -192.5t-25 -240q0 -148 66.5 -235t159.5 -87q44 0 79.5 20.5t58 57t38 80t23.5 97t11 100t3 96.5
q0 75 -9 135t-31.5 118.5t-69 94.5t-114.5 43zM1075 918q-54 0 -107.5 -20t-98.5 -56t-73 -91.5t-28 -121.5l31 10q32 11 132.5 43t174 57.5t117.5 46.5q-13 59 -54.5 95.5t-93.5 36.5z" />
    <glyph glyph-name="Ydieresis" unicode="&#x178;" horiz-adv-x="845" 
d="M776 1446l111 -35q-17 -34 -89 -190.5t-156.5 -323t-164.5 -291.5q7 -97 10 -304t9 -296q-18 -4 -93 -4q-70 0 -84 4q6 86 10 295t11 305q-75 125 -142.5 277t-130.5 308t-108 247l135 10q49 -105 112 -243.5t108.5 -236.5t95.5 -200q29 53 161 312t205 366zM217 1763
q55 0 91 -46.5t36 -106.5q0 -43 -21 -71t-57 -28q-55 0 -88 46.5t-33 107.5q0 42 19.5 70t52.5 28zM563 1763q55 0 91 -46.5t36 -106.5q0 -43 -21 -71t-57 -28q-55 0 -87.5 46.5t-32.5 107.5q0 43 19 70.5t52 27.5z" />
    <glyph glyph-name="afii10023" unicode="&#x401;" horiz-adv-x="937" 
d="M844 90l20 -90h-37q-54 0 -249.5 -7t-292.5 -7q-148 0 -203 14q20 223 23.5 739.5t25.5 716.5q66 -6 361 -10t385 -19l20 -90q-90 -16 -358 -37.5t-285 -23.5q2 -46 9.5 -188.5t8.5 -233.5q69 -8 250 -23.5t226 -19.5l20 -90q-10 -1 -140.5 -14t-213 -19.5t-140.5 -7.5
q0 -88 -3 -267.5t-3 -262.5q32 -3 134.5 -12t159 -14.5t139.5 -15t143 -18.5zM258 1907q55 0 91 -47t36 -107q0 -42 -21 -70t-57 -28q-56 0 -88.5 46t-32.5 107q0 42 19.5 70.5t52.5 28.5zM686 1907q55 0 91 -47t36 -107q0 -42 -21 -70t-57 -28q-56 0 -88.5 46t-32.5 107
q0 42 19.5 70.5t52.5 28.5z" />
    <glyph glyph-name="afii10051" unicode="&#x402;" horiz-adv-x="1177" 
d="M946 256q0 75 -5 132t-20 114t-41 93t-69.5 58.5t-103.5 22.5q-95 0 -224 -60q-1 -56 -2.5 -186t-4 -236.5t-7.5 -187.5l-139 -20q-5 68 -6 641t-5 696l-299 18l-20 91l764 45q50 -3 84.5 -37.5t34.5 -73.5q0 -26 -20.5 -46t-59.5 -24l-305 17l-11 -516q118 34 218 34
q194 0 292.5 -137.5t98.5 -386.5q0 -109 -17 -189t-44 -127.5t-70 -75t-87 -37t-102 -9.5q-43 0 -86 14v74q137 31 196.5 101t59.5 198z" />
    <glyph glyph-name="afii10052" unicode="&#x403;" horiz-adv-x="860" 
d="M840 1432l20 -91q-88 -7 -307.5 -19t-308.5 -19q6 -189 8.5 -636.5t9.5 -654.5q-19 -61 -69 -61q-36 0 -69 29.5t-42 70.5q16 172 21 399.5t8 780.5q0 33 1 103.5t1 109.5q108 -6 217 -6q44 0 132 1t132 1q137 0 246 -8zM393 1516l-59 55q5 7 49 52.5t91.5 100.5t64.5 93
q12 8 36 8q37 0 71 -14t34 -37q0 -48 -107 -137.5t-180 -120.5z" />
    <glyph glyph-name="afii10053" unicode="&#x404;" horiz-adv-x="1060" 
d="M242 831q5 0 22.5 1.5t30.5 1.5q66 0 176 -4t192 -8.5t82 -6.5l15 -72q-43 -28 -215.5 -52.5t-302.5 -33.5q-4 -28 -4 -49q0 -57 17.5 -128t51.5 -141.5t78 -129.5t102 -96t119 -37q78 0 167 33.5t218 99.5q12 -17 22.5 -34.5t16 -28.5l15.5 -31t16 -33
q-251 -174 -453 -174q-104 0 -193 52.5t-149 135.5t-102.5 187t-62 207t-19.5 196q0 70 5.5 139t20 147.5t37 146.5t59.5 132t84 109.5t113.5 72.5t145.5 27q116 0 238.5 -40t211.5 -99l-79 -92q-154 114 -306 114q-154 0 -255.5 -129t-114.5 -383z" />
    <glyph glyph-name="afii10054" unicode="&#x405;" 
d="M55 115l29 110q178 -94 342 -94q54 0 102.5 10.5t92.5 33t70 65t26 100.5q0 72 -38.5 134.5t-100 110t-135.5 93t-148.5 94t-136 101.5t-100 126.5t-38.5 159.5q0 91 45 177.5t126.5 143t177.5 56.5q110 0 246.5 -43.5t224.5 -87.5l-25 -82q-80 28 -189 54t-194 26
q-95 0 -163 -62.5t-68 -160.5q0 -58 23.5 -108t64 -87.5t92.5 -72t109.5 -67t115 -67.5t109.5 -79t92.5 -94.5t64 -121t23.5 -153.5q0 -150 -95 -245t-251 -95q-131 0 -281 38t-213 87z" />
    <glyph glyph-name="afii10055" unicode="&#x406;" horiz-adv-x="675" 
d="M47 -6l-4 98q17 3 54.5 9.5t61 11t56 8t57.5 4.5q2 68 2 203q0 180 -8.5 519.5t-9.5 448.5l-203 11l-12 114q82 -2 254 -2q174 0 260 -2l6 -98q-35 -15 -97.5 -18t-76.5 -5q6 -56 7.5 -281t1.5 -500t3 -390q31 -6 122.5 -15t113.5 -12l-4 -104q-59 2 -191 2
q-68 0 -201.5 -1t-191.5 -1z" />
    <glyph glyph-name="afii10056" unicode="&#x407;" horiz-adv-x="675" 
d="M47 -6l-4 98q17 3 54.5 9.5t61 11t56 8t57.5 4.5q2 68 2 203q0 180 -8.5 519.5t-9.5 448.5l-203 11l-12 114q82 -2 254 -2q174 0 260 -2l6 -98q-35 -15 -97.5 -18t-76.5 -5q6 -56 7.5 -281t1.5 -500t3 -390q31 -6 122.5 -15t113.5 -12l-4 -104q-59 2 -191 2
q-68 0 -201.5 -1t-191.5 -1zM426 1796q55 0 91 -47t36 -107q0 -42 -21 -70t-57 -28q-55 0 -88 46.5t-33 107.5q0 42 19.5 70t52.5 28zM119 1796q55 0 91 -47t36 -107q0 -42 -21 -70t-57 -28q-55 0 -88 46.5t-33 107.5q0 42 19.5 70t52.5 28z" />
    <glyph glyph-name="afii10057" unicode="&#x408;" horiz-adv-x="778" 
d="M0 197l102 51q115 -156 265 -156q47 0 80 15.5t53 41t31 71t14.5 94t3.5 120.5q0 131 -4 412t-4 440q0 109 2 164q15 -6 37 -6q8 0 24 1t25 1q31 0 59 -12q-4 -136 -4 -207q0 -114 6 -367.5t6 -392.5q0 -72 -0.5 -110t-2.5 -93t-7 -82t-13.5 -66t-21 -56.5t-31.5 -42
t-43.5 -34t-58 -20.5t-74.5 -14.5t-92 -3.5q-110 0 -203 59.5t-149 192.5z" />
    <glyph glyph-name="afii10058" unicode="&#x409;" horiz-adv-x="1720" 
d="M-86 -188l-57 104q79 54 142 119t106 131.5t75 147t50 154t28.5 165t14 168.5t3.5 174q0 72 5.5 222t5.5 230q62 11 178 11q50 0 152 -3t153 -3q97 0 176 8q25 -141 25 -420q0 -109 -2 -164q55 6 110 6q134 0 248 -41.5t190 -111t119 -159t43 -185.5q0 -209 -131 -307.5
t-370 -98.5q-131 0 -238.5 20t-124.5 50q0 48 2 73q0 27 1 83t1 85q0 116 -5 364t-5 384q0 184 4 274q-47 4 -164.5 6t-181.5 11q-14 -85 -23.5 -202t-14 -217t-16.5 -218t-29.5 -216.5t-54 -200.5t-88.5 -182t-135 -149t-192 -112zM969 705q14 -434 20 -570
q120 -16 242 -16q280 0 280 266q0 138 -119 233t-313 95q-58 0 -110 -8z" />
    <glyph glyph-name="afii10059" unicode="&#x40a;" horiz-adv-x="1605" 
d="M698 1438l115 24q34 -261 41 -608q56 6 111 6q133 0 247.5 -42t190.5 -111t119 -159t43 -186q0 -209 -131.5 -307t-370.5 -98q-131 0 -238.5 20t-124.5 50v663q-129 -4 -391 -4q-51 0 -76 2q3 -121 14.5 -354.5t14.5 -317.5q-19 -61 -69 -61q-36 0 -69 29.5t-42 70.5
q6 167 11 665t20 742l90 -20q0 -12 2 -37.5t2 -40.5q18 -323 26 -557q72 6 226 9.5t235 10.5q1 0 2 20t1.5 162.5t0.5 428.5zM858 702q3 -264 16 -569q120 -16 242 -16q281 0 281 266q0 138 -119 233t-313 95q-52 0 -107 -9z" />
    <glyph glyph-name="afii10060" unicode="&#x40b;" horiz-adv-x="1198" 
d="M20 1341l-20 91l764 45q50 -3 84.5 -37.5t34.5 -73.5q0 -26 -20.5 -46t-59.5 -24l-305 17l-11 -516q118 34 218 34q197 0 304 -135t107 -379q0 -153 -37 -335l-131 20q6 92 6 176q0 93 -6 164t-22 136.5t-43.5 107t-71.5 66t-104 24.5q-95 0 -224 -60q-1 -33 -2 -268
t-8 -342h-143q-5 68 -6 631t-5 686z" />
    <glyph glyph-name="afii10061" unicode="&#x40c;" horiz-adv-x="1046" 
d="M1040 43l7 -76q-98 -30 -203 -30q-79 0 -137.5 36.5t-93.5 95t-63 129.5t-53.5 141.5t-56 129t-80.5 95t-118 36.5l20 -588q-19 -61 -69 -61q-36 0 -69 29.5t-42 70.5q2 41 14 677t19 736l90 -20q2 -76 11 -285.5t11 -281.5q49 1 90.5 22t71 56.5t55 81.5t47.5 97
t44 101.5t49 96t58 80.5t75 56t96 21q67 0 231 -31l-20 -80q-19 3 -52 9.5t-52 9t-37 2.5q-52 0 -91 -31t-65.5 -82t-50 -114t-53 -129.5t-66.5 -125t-98 -104.5t-140 -65q83 -19 146 -69t100 -115.5t65.5 -140.5t50.5 -146t47.5 -128.5t64.5 -93t92 -35.5q65 0 155 23z
M393 1516l-59 55q5 7 49 52.5t91.5 100.5t64.5 93q12 8 36 8q37 0 71 -14t34 -37q0 -48 -107 -137.5t-180 -120.5z" />
    <glyph glyph-name="afii10062" unicode="&#x40e;" horiz-adv-x="983" 
d="M0 1364l104 98q92 -149 230.5 -460t185.5 -402q194 502 301 819q25 49 68 49q35 0 63 -35t31 -81q-66 -140 -215 -474t-251 -541t-218 -400l-129 24q154 313 258 508q-23 65 -58.5 146.5t-93 198.5t-87 177t-105 208t-84.5 165zM266 1561l-14 63q49 -6 94 -6
q135 0 254 76q46 -3 78.5 -27.5t32.5 -56.5q0 -18 -8.5 -31t-26.5 -21t-35 -12.5t-44 -6.5t-42 -2.5t-41 -0.5q-134 0 -248 25z" />
    <glyph glyph-name="afii10145" unicode="&#x40f;" horiz-adv-x="960" 
d="M506 -334l-90 21l-21 268h-282q-15 244 -20 742t-11 665q9 41 42 70.5t69 29.5q50 0 69 -61q-4 -95 -11 -363t-14.5 -569.5t-9.5 -364.5q64 5 150 5q60 0 159 -6.5t142 -6.5q0 109 10 606.5t10 659.5q9 41 42 70.5t69 29.5q51 0 70 -61q-13 -186 -16.5 -460t-13 -523
t-36.5 -463h-287z" />
    <glyph glyph-name="afii10017" unicode="&#x410;" horiz-adv-x="1077" 
d="M467 1450l151 -10q37 -160 101.5 -351t124 -340.5t127 -340.5t106.5 -347q0 -58 -19.5 -86t-49.5 -28q-26 0 -48.5 21t-31.5 59q-8 36 -18 72.5t-24 77t-23 66t-27.5 72.5t-24.5 64q-274 37 -516 63q-26 -71 -65.5 -234t-59.5 -224q-28 -35 -68 -35q-41 0 -71.5 36.5
t-30.5 90.5q64 234 232.5 687t234.5 687zM537 1247q-40 -231 -224 -708h226q141 0 254 -11q-207 444 -256 719z" />
    <glyph glyph-name="afii10018" unicode="&#x411;" horiz-adv-x="954" 
d="M799 1462l-25 -102q-104 -7 -267 -15.5t-265 -15.5v-450q95 26 186 26q222 0 353.5 -146.5t131.5 -373.5q0 -77 -38.5 -143.5t-100.5 -111t-141.5 -76.5t-161.5 -47t-160 -15q-167 0 -229 59q6 166 12 666.5t21 744.5h684zM244 788q0 -2 -0.5 -45.5t-1 -180t-0.5 -363.5
q61 -70 153 -70q80 0 164 48t138.5 124.5t54.5 153.5q0 157 -108 253.5t-271 96.5q-52 0 -129 -17z" />
    <glyph glyph-name="afii10019" unicode="&#x412;" horiz-adv-x="995" 
d="M82 51l10 1409q22 74 172 74q101 0 193.5 -22.5t168.5 -66t121.5 -116.5t45.5 -166q0 -95 -47 -184.5t-115 -116.5q127 -18 204.5 -154.5t77.5 -322.5q0 -77 -38.5 -143.5t-100.5 -111t-141.5 -76.5t-161.5 -47t-160 -15q-167 0 -229 59zM246 752q0 -135 -4 -553
q61 -70 153 -70q80 0 164 48t138.5 124.5t54.5 153.5q0 147 -98 228t-253 81q-102 0 -155 -12zM242 899l125 2q128 0 197 75t69 179q0 105 -70.5 182.5t-193.5 77.5q-66 0 -133 -22q4 -122 5 -303t1 -191z" />
    <glyph glyph-name="afii10020" unicode="&#x413;" horiz-adv-x="860" 
d="M840 1432l20 -91q-88 -7 -307.5 -19t-308.5 -19q6 -189 8.5 -636.5t9.5 -654.5q-19 -61 -69 -61q-36 0 -69 29.5t-42 70.5q16 172 21 399.5t8 780.5q0 33 1 103.5t1 109.5q108 -6 217 -6q44 0 132 1t132 1q137 0 246 -8z" />
    <glyph glyph-name="afii10021" unicode="&#x414;" horiz-adv-x="1126" 
d="M1077 -256l-90 20q-19 160 -61 248q-180 13 -332 13q-121 0 -422 -13q-8 -32 -45 -293l-86 9q-41 212 -41 368q0 9 1 29t1 29q2 0 65.5 1t65.5 1q44 90 74.5 197t45 202.5t22 219t8 213t1.5 221t3 208.5q141 10 622 10l45 -1253q31 -3 65 -5t66 -5q-6 -44 -6 -105
q0 -31 2 -100t2 -102q0 -67 -6 -113zM295 168q55 0 161.5 -3t159.5 -3q78 0 158 6q4 127 4 393v400q0 237 4 354q-58 4 -84 4q-47 0 -133 -6.5t-116 -7.5q-7 -90 -12 -229.5t-10.5 -236t-18.5 -215.5t-41 -233t-72 -223z" />
    <glyph glyph-name="afii10022" unicode="&#x415;" horiz-adv-x="897" 
d="M844 90l20 -90q-78 0 -282.5 -7t-296.5 -7q-148 0 -203 14q20 223 23.5 739.5t25.5 716.5q66 -6 361 -10t385 -19l20 -90q-90 -16 -358 -37.5t-285 -23.5q2 -46 9.5 -188.5t8.5 -233.5q69 -8 250 -23.5t226 -19.5l20 -90q-10 -1 -140.5 -14t-213 -19.5t-140.5 -7.5
q0 -88 -3 -267.5t-3 -262.5q32 -3 134.5 -12t159 -14.5t139.5 -15t143 -18.5z" />
    <glyph glyph-name="afii10024" unicode="&#x416;" horiz-adv-x="1689" 
d="M764 614q-68 0 -118 -36.5t-80.5 -95t-56 -129.5t-53.5 -141.5t-63 -129t-93.5 -95t-137.5 -36.5q-101 0 -203 31l6 75q86 -22 156 -22q53 0 92 35t64 93t47.5 129t51 145.5t65 140t99.5 115.5t146 69q-79 19 -140 65t-97.5 104.5t-66 125t-53.5 129.5t-50 114t-65 82
t-91 31q-19 0 -141 -20l-21 80q159 30 232 30q66 0 118.5 -33.5t87 -87t64.5 -118.5t59 -130.5t62 -119.5t82.5 -88t111.5 -35l13 573l100 -20q2 -76 10 -278.5t10 -274.5q49 1 90.5 22t71 56.5t55 81.5t47.5 97t44 101.5t49 96t58 80.5t75 56t96 21q73 0 232 -30l-21 -80
q-122 20 -141 20q-52 0 -91 -31t-65 -82t-50 -114t-53.5 -129.5t-66 -125t-97.5 -104.5t-140 -65q83 -19 146 -69t99.5 -115.5t65 -140t51 -145.5t47.5 -129t64 -93t92 -35q69 0 155 22l7 -75q-102 -31 -203 -31q-79 0 -137.5 36.5t-93.5 95t-63 129.5t-53.5 141.5t-56 129
t-80.5 95t-118 36.5l12 -602q-19 -61 -70 -61q-36 0 -68.5 29.5t-41.5 70.5q4 65 6 563z" />
    <glyph glyph-name="afii10025" unicode="&#x417;" horiz-adv-x="929" 
d="M117 1251l-64 68q215 141 391 141q152 0 246 -109t94 -270q0 -90 -34.5 -165t-102.5 -115q100 -18 150.5 -121t50.5 -244q0 -104 -20 -183.5t-65 -141.5t-123.5 -94.5t-188.5 -32.5q-93 0 -180 26t-161 83t-110 138q10 9 14.5 16.5t6 11.5t10.5 11.5t28 18.5
q88 -79 197.5 -128.5t204.5 -49.5q107 0 172 69.5t65 218.5q0 153 -86.5 246.5t-253.5 93.5q-22 0 -84 -4q-1 8 -9 43t-17 105q24 2 70.5 4.5t71 4.5t64 8.5t61 16t48.5 27t40.5 42t23.5 61t10 83.5q0 97 -66.5 143t-173.5 46q-141 0 -280 -68z" />
    <glyph glyph-name="afii10026" unicode="&#x418;" horiz-adv-x="1054" 
d="M113 1466l90 -20q17 -288 45 -1098q384 675 536 1116q31 25 58 25q43 0 72.5 -52t31.5 -118q6 -184 11.5 -626.5t15.5 -661.5q-19 -62 -70 -62q-35 0 -68 30t-42 71q6 174 7 534t3 486q-45 -78 -122.5 -225t-133 -250.5t-136.5 -228.5t-157 -212l8 -162q-19 -61 -69 -61
q-36 0 -69 29.5t-42 70.5q5 163 11.5 662t19.5 753z" />
    <glyph glyph-name="afii10027" unicode="&#x419;" horiz-adv-x="1054" 
d="M297 1622l-14 64q58 -7 94 -7q135 0 254 76q46 -3 78 -27.5t32 -56.5q0 -18 -8.5 -31t-26.5 -21t-34.5 -12.5t-43.5 -6.5t-42 -2.5t-41 -0.5q-134 0 -248 25zM113 1466l90 -20q17 -288 45 -1098q384 675 536 1116q31 25 58 25q43 0 72.5 -52t31.5 -118
q6 -184 11.5 -626.5t15.5 -661.5q-19 -62 -70 -62q-35 0 -68 30t-42 71q6 174 7 534t3 486q-45 -78 -122.5 -225t-133 -250.5t-136.5 -228.5t-157 -212l8 -162q-19 -61 -69 -61q-36 0 -69 29.5t-42 70.5q5 163 11.5 662t19.5 753z" />
    <glyph glyph-name="afii10028" unicode="&#x41a;" horiz-adv-x="1046" 
d="M1040 43l7 -76q-98 -30 -203 -30q-79 0 -137.5 36.5t-93.5 95t-63 129.5t-53.5 141.5t-56 129t-80.5 95t-118 36.5l20 -588q-19 -61 -69 -61q-36 0 -69 29.5t-42 70.5q2 41 14 677t19 736l90 -20q2 -76 11 -285.5t11 -281.5q49 1 90.5 22t71 56.5t55 81.5t47.5 97
t44 101.5t49 96t58 80.5t75 56t96 21q67 0 231 -31l-20 -80q-19 3 -52 9.5t-52 9t-37 2.5q-52 0 -91 -31t-65.5 -82t-50 -114t-53 -129.5t-66.5 -125t-98 -104.5t-140 -65q83 -19 146 -69t100 -115.5t65.5 -140.5t50.5 -146t47.5 -128.5t64.5 -93t92 -35.5q65 0 155 23z" />
    <glyph glyph-name="afii10029" unicode="&#x41b;" horiz-adv-x="1056" 
d="M-106 -188l-58 104q92 63 162 138.5t115 161.5t74.5 172t44 190t19.5 193.5t5 203.5q0 72 5 222t5 230q62 11 178 11q50 0 152.5 -3t153.5 -3q97 0 176 8q24 -136 24 -420q0 -76 -2 -238t-2 -247q0 -332 29 -541q-19 -62 -70 -62q-35 0 -68 30t-42 71q4 156 4 237
q0 116 -5.5 364t-5.5 384q0 162 5 274q-47 4 -165 6t-182 11q-14 -85 -23.5 -202t-14 -217t-16.5 -218t-29 -216.5t-53.5 -200.5t-88.5 -182t-135 -149t-192 -112z" />
    <glyph glyph-name="afii10030" unicode="&#x41c;" horiz-adv-x="1472" 
d="M1473 0l-152 -14q-108 671 -240 1181q-67 -156 -146 -439t-108 -366q-4 0 -12.5 -1t-13.5 -1q-28 0 -92 6.5t-82 6.5q-2 57 -102.5 385t-121.5 422q-22 -192 -109 -542.5t-169 -637.5l-125 12q19 158 61 355t81 351.5t76 348t50 354.5q36 4 58 4q26 0 53.5 -3t57 -7.5
t36.5 -5.5q27 -4 80.5 -180.5t107.5 -389t68 -249.5q56 139 136.5 448.5t111.5 393.5q4 0 201 -19q52 -202 101 -434.5t107 -534.5t87 -444z" />
    <glyph glyph-name="afii10031" unicode="&#x41d;" horiz-adv-x="960" 
d="M698 1438l115 24q27 -214 36.5 -463t13 -523t16.5 -460q-19 -61 -70 -61q-36 0 -69 29.5t-42 70.5q2 72 2 242v393q-42 -3 -122 -9.5t-145.5 -10.5t-123.5 -4q-51 0 -76 2q3 -120 14.5 -342t14.5 -310q-19 -61 -69 -61q-36 0 -69 29.5t-42 70.5q6 167 11 665t20 742
l90 -20q0 -6 1 -19t1 -20q20 -389 28 -617q70 5 461 41q1 0 2 20t1.5 162.5t0.5 428.5z" />
    <glyph glyph-name="afii10032" unicode="&#x41e;" horiz-adv-x="1073" 
d="M84 670q0 274 22 410q60 372 315 418q37 7 79 7q90 0 162.5 -25.5t123 -67t88 -104t59.5 -127.5t35.5 -146.5t18 -152.5t4.5 -153q0 -80 -2.5 -143t-12 -145t-25.5 -143.5t-46 -125t-71.5 -104.5t-103 -67t-138.5 -26q-123 0 -212.5 30t-146.5 84t-90 142.5t-46 192
t-13 246.5zM848 653q0 51 -4 107.5t-15 127t-27.5 135t-45 127.5t-64.5 109t-88.5 74.5t-114.5 28.5q-61 0 -111.5 -62.5t-80 -157t-45.5 -194t-16 -184.5q0 -238 20 -348q47 -255 231 -298q33 -8 70 -9q75 4 132.5 50t91 123t50.5 170.5t17 200.5z" />
    <glyph glyph-name="afii10033" unicode="&#x41f;" horiz-adv-x="960" 
d="M113 1462h700q27 -214 36.5 -463t13 -523t16.5 -460q-19 -61 -70 -61q-36 0 -69 29.5t-42 70.5q0 162 -10 659.5t-10 606.5q-43 0 -142 -6t-159 -6q-99 0 -150 4q2 -63 9.5 -364.5t14.5 -569.5t11 -363q-19 -61 -69 -61q-36 0 -69 29.5t-42 70.5q6 167 11 665t20 742z
" />
    <glyph glyph-name="afii10034" unicode="&#x420;" horiz-adv-x="1050" 
d="M115 1436l90 24q0 -63 2 -71q54 35 140 55t179 20q222 0 332.5 -139.5t110.5 -388.5q0 -105 -25 -195.5t-75.5 -163t-136 -114t-197.5 -41.5q-45 0 -93.5 4t-112.5 11t-83 9q4 -146 16 -454q-19 -62 -69 -62q-35 0 -68.5 30t-42.5 71q5 156 12.5 646.5t20.5 758.5z
M223 1253l17 -622q47 -27 117 -44.5t137 -17.5q137 0 233 104t96 255q0 105 -43 201t-125 158.5t-182 62.5q-122 0 -250 -97z" />
    <glyph glyph-name="afii10035" unicode="&#x421;" horiz-adv-x="1081" 
d="M997 1321l-79 -92q-153 114 -308 114q-72 0 -130 -25t-96 -64.5t-65.5 -99.5t-42.5 -117.5t-23.5 -133t-10.5 -130.5t-2 -124q0 -55 13.5 -126.5t43.5 -150.5t71.5 -144.5t104 -108.5t133.5 -43q78 0 167 33.5t218 99.5q12 -17 22.5 -34.5t16 -28.5l15.5 -31t16 -33
q-251 -174 -451 -174q-87 0 -164.5 36.5t-133.5 98.5t-101 141t-72.5 166.5t-42 172t-14.5 161.5q0 70 5.5 139.5t20 147.5t37 146.5t59.5 132.5t84 109.5t113.5 73t145.5 27.5q116 0 238.5 -40t211.5 -99z" />
    <glyph glyph-name="afii10036" unicode="&#x422;" horiz-adv-x="882" 
d="M20 1341l-20 91l764 45q50 -3 84.5 -37.5t34.5 -73.5q0 -26 -20.5 -46t-59.5 -24l-336 19q47 -651 74 -1284q-19 -62 -70 -62q-35 0 -68.5 30t-42.5 71q5 136 5 327q0 82 -1.5 247t-1.5 247q0 215 9 430q-117 8 -351 20z" />
    <glyph glyph-name="afii10037" unicode="&#x423;" horiz-adv-x="983" 
d="M0 1364l104 98q92 -149 230.5 -460t185.5 -402q194 502 301 819q25 49 68 49q35 0 63 -35t31 -81q-66 -140 -215 -474t-251 -541t-218 -400l-129 24q154 313 258 508q-23 65 -58.5 146.5t-93 198.5t-87 177t-105 208t-84.5 165z" />
    <glyph glyph-name="afii10038" unicode="&#x424;" horiz-adv-x="1529" 
d="M680 215q3 132 8.5 484t11.5 528h-18q-143 0 -260.5 -73t-182.5 -197t-65 -271q0 -214 123.5 -344.5t345.5 -130.5q27 0 37 4zM795 1468l8 -143q50 4 74 4q115 0 225 -40.5t196 -111.5t138.5 -177t52.5 -228q-1 -81 -11.5 -158t-32.5 -157t-61 -146.5t-91.5 -119
t-128.5 -82t-169 -29.5q-27 0 -77.5 3.5t-63.5 4.5v-94q-19 -62 -70 -62q-35 0 -68 30t-42 71l2 55q-13 -1 -63.5 -4.5t-77.5 -3.5q-105 0 -189.5 39t-140.5 105t-93.5 156t-54 187.5t-16.5 204.5q0 116 49 220t130 177t187 115.5t218 42.5q37 0 77 -6q3 12 3 35
q0 13 -1.5 45t-1.5 49q0 7 1.5 20t1.5 19zM840 1225h-31q14 -284 37 -1010h24q261 1 374.5 118.5t113.5 352.5q0 152 -66.5 275t-185.5 193.5t-266 70.5z" />
    <glyph glyph-name="afii10039" unicode="&#x425;" horiz-adv-x="1116" 
d="M86 -18l-86 45q52 122 120 240t183.5 293t145.5 224q-57 88 -210 308t-227 342l84 39q157 -184 426 -572q10 38 175.5 266t189.5 271q29 51 71 51q38 0 71 -35.5t36 -81.5q-10 -12 -206.5 -285t-244.5 -329q67 -103 259 -365.5t243 -349.5q0 -38 -19 -58t-48 -20
t-58.5 18.5t-46.5 49.5q-87 136 -215.5 322t-193.5 288q-63 -100 -220 -320t-229 -341z" />
    <glyph glyph-name="afii10040" unicode="&#x426;" horiz-adv-x="1075" 
d="M1001 -268h-92q-9 34 -17 80t-16.5 108t-11.5 80q-141 -16 -450 -16q-244 0 -332 10q7 216 20.5 736t20.5 736l90 -20q6 -209 16.5 -664.5t16.5 -658.5q89 0 154 -3t71 -3q47 0 240 33q7 217 25.5 671t25.5 645l90 -20q-2 -141 -2 -426q0 -384 6 -803q0 -10 1 -30.5
t1 -30.5q23 0 81.5 -3t94.5 -3q-3 -40 -7 -125t-10 -158.5t-16 -134.5z" />
    <glyph glyph-name="afii10041" unicode="&#x427;" horiz-adv-x="940" 
d="M717 1425l90 -20q7 -101 28 -675t23 -687q-19 -61 -70 -61q-36 0 -68.5 29.5t-41.5 70.5q1 33 12 553q-122 -35 -217 -35q-195 0 -293 133.5t-98 380.5q0 154 37 336l90 -20q-6 -92 -6 -177q0 -114 13.5 -201t43.5 -155.5t83 -104.5t128 -36q96 0 223 59q9 394 23 610z
" />
    <glyph glyph-name="afii10042" unicode="&#x428;" horiz-adv-x="1286" 
d="M1102 1466l90 -20q-2 -147 -2 -393q0 -336 7 -630t7 -341v-82q-95 -10 -342.5 -16.5t-476.5 -6.5q-235 0 -303 7q7 216 20.5 736t20.5 736l90 -20q6 -209 16.5 -664.5t16.5 -658.5l315 14q7 218 25.5 675t25.5 650l90 -20q6 -206 16.5 -652.5t16.5 -644.5q77 6 316 15
q7 217 25.5 671t25.5 645z" />
    <glyph glyph-name="afii10043" unicode="&#x429;" horiz-adv-x="1415" 
d="M1341 -268h-92q-9 34 -17 80t-16.5 108t-11.5 80q-95 -10 -342.5 -16.5t-476.5 -6.5q-235 0 -303 7q7 216 20.5 736t20.5 736l90 -20q6 -209 16.5 -664.5t16.5 -658.5l315 14q7 218 25.5 675t25.5 650l90 -20q6 -206 16.5 -652.5t16.5 -644.5q45 4 160.5 9.5t155.5 5.5
q7 217 25.5 671t25.5 645l90 -20q-2 -217 -2 -547q0 -247 6 -682q0 -10 1 -30.5t1 -30.5q23 0 81.5 -3t94.5 -3q-3 -40 -7 -125t-10 -158.5t-16 -134.5z" />
    <glyph glyph-name="afii10044" unicode="&#x42a;" horiz-adv-x="1198" 
d="M-12 1341l-29 121q43 3 185.5 6.5t258.5 12.5q20 -309 33 -629q55 8 121 8q133 0 247.5 -42t190.5 -111t119 -159t43 -186q0 -209 -131.5 -307t-370.5 -98q-131 0 -238 20t-124 50q6 185 9.5 620.5t10.5 650.5zM446 702q11 -334 21 -569q120 -16 242 -16q280 0 280 266
q0 138 -119 233t-313 95q-53 0 -111 -9z" />
    <glyph glyph-name="afii10045" unicode="&#x42b;" horiz-adv-x="1400" 
d="M111 1470l90 -20q7 -112 15 -339.5t9 -258.5q55 8 121 8q133 0 247.5 -42t190.5 -111t119 -159t43 -186q0 -209 -131.5 -307t-370.5 -98q-131 0 -238 20t-124 50q5 160 10 675t19 768zM236 702q14 -430 20 -569q120 -16 242 -16q280 0 280 266q0 138 -119 233t-313 95
q-52 0 -110 -9zM1178 1456l90 -20q12 -211 20.5 -440.5t17 -534.5t13.5 -441q-19 -61 -70 -61q-36 0 -68.5 29.5t-41.5 70.5q5 145 14 637.5t25 759.5z" />
    <glyph glyph-name="afii10046" unicode="&#x42c;" horiz-adv-x="987" 
d="M111 1470l90 -20q7 -112 15 -339.5t9 -258.5q55 8 121 8q133 0 247.5 -42t190.5 -111t119 -159t43 -186q0 -209 -131.5 -307t-370.5 -98q-131 0 -238 20t-124 50q5 160 10 675t19 768zM236 702q14 -430 20 -569q120 -16 242 -16q280 0 280 266q0 138 -119 233t-313 95
q-52 0 -110 -9z" />
    <glyph glyph-name="afii10047" unicode="&#x42d;" horiz-adv-x="1060" 
d="M819 831q-13 254 -114.5 383t-255.5 129q-152 0 -306 -114l-80 92q89 59 212 99t239 40q79 0 145.5 -27t113.5 -72.5t84 -109.5t59.5 -132t37 -146.5t20 -147.5t5.5 -139q0 -93 -19.5 -196t-62 -207t-102.5 -187t-149 -135.5t-193 -52.5q-202 0 -453 174q6 13 16 33
l15.5 31t16 28.5t22.5 34.5q129 -66 218 -99.5t167 -33.5q61 0 119 37t102 96t78 129.5t51.5 141.5t17.5 128q0 21 -4 49q-130 9 -302.5 33.5t-215.5 52.5l14 72q0 2 82 6.5t192.5 8.5t176.5 4q13 0 30.5 -1.5t22.5 -1.5z" />
    <glyph glyph-name="afii10048" unicode="&#x42e;" horiz-adv-x="1437" 
d="M109 1462l90 -20q26 -407 37 -723l231 37q7 227 25 331q58 345 300 388q35 6 74 6q80 0 148.5 -28.5t118 -77t88.5 -115.5t64 -140t41.5 -154t23 -154.5t6.5 -145.5q0 -80 -5.5 -149t-20.5 -142t-39.5 -131.5t-64.5 -111.5t-93 -88t-127.5 -56t-165.5 -21
q-400 0 -400 477q0 74 6 144l-206 30l22 -575q-19 -61 -69 -61q-36 0 -69 29.5t-42 70.5q5 162 9 647t18 733zM588 612q5 -95 18 -179.5t37 -163t65 -125t93 -46.5q92 0 164 32.5t116 86t72.5 129t39.5 153t11 167.5q0 80 -8 163t-30.5 178.5t-57.5 168.5t-94.5 121.5
t-136.5 48.5q-60 0 -109.5 -51.5t-81.5 -131t-54.5 -180.5t-32.5 -194t-11 -177z" />
    <glyph glyph-name="afii10049" unicode="&#x42f;" horiz-adv-x="1001" 
d="M61 1047q0 74 15 133.5t40 101t65.5 72t84.5 48.5t103.5 28.5t116 14t128.5 3.5q152 0 269 -21q13 -31 15 -153t5.5 -484t16.5 -759q-19 -62 -70 -62q-35 0 -68.5 30t-42.5 71q10 324 13 561q-17 0 -55.5 -2t-59.5 -2q-11 -99 -75 -223t-154 -234.5t-202.5 -195.5
t-213.5 -107l-33 90q68 23 128 61.5t105 82.5t85 99.5t67 107t51.5 112t39 107.5t28.5 100q-192 0 -297 111.5t-105 308.5zM760 758l10 520q-124 39 -229 39q-156 0 -242 -80t-86 -201q18 -305 336 -305q91 0 211 27z" />
    <glyph glyph-name="afii10065" unicode="&#x430;" horiz-adv-x="823" 
d="M154 864l-39 103q52 52 130.5 82t157.5 30q338 0 338 -583q0 -79 -8 -235t-8 -234q-17 -64 -63 -64q-34 0 -65.5 37t-31.5 80q0 14 2 20q-58 -56 -127 -88t-137 -32q-106 0 -184 76.5t-78 187.5q0 122 66.5 234.5t176.5 181.5t230 69q15 0 51 -4q-16 233 -184 233
q-100 0 -227 -94zM571 238q4 140 4 213q0 61 -4 167h-16q-91 -1 -176.5 -46.5t-142 -129.5t-56.5 -182q0 -63 39 -101t94 -38q40 0 92 21.5t83.5 41t82.5 54.5z" />
    <glyph glyph-name="afii10066" unicode="&#x431;" horiz-adv-x="940" 
d="M215 952q49 38 122 63t130 25q371 0 371 -430q0 -47 -4 -101t-14.5 -123.5t-27 -134t-44.5 -127.5t-63.5 -110t-87.5 -75.5t-114 -28.5q-91 0 -161 40.5t-115 112t-73.5 178t-40 229t-11.5 275.5q0 158 34 289.5t93 231.5t152.5 186.5t198.5 151t245 129.5
q11 -13 27 -26.5t28 -35.5t39 -86q-34 -20 -90 -49.5t-100.5 -52.5t-102.5 -57.5t-103.5 -67t-94 -77.5t-84 -92t-65 -108.5t-44.5 -128.5zM684 623q0 149 -68.5 220.5t-181.5 71.5q-106 0 -171.5 -91t-65.5 -220q0 -60 7.5 -128.5t26 -144.5t45.5 -136.5t70 -100t96 -39.5
q47 0 85.5 23.5t63 60t43 90t27.5 102.5t14.5 109.5t7 99.5t1.5 83z" />
    <glyph glyph-name="afii10067" unicode="&#x432;" 
d="M127 1026q317 66 377 66q268 0 268 -230q0 -80 -27 -154t-67 -100q77 -53 116.5 -129.5t39.5 -163.5q0 -176 -115 -273t-303 -97q-102 0 -192 30.5t-142 87.5zM240 524l18 -405q55 -25 115 -25q123 0 227.5 78.5t104.5 181.5q0 71 -56.5 133t-142.5 62q-27 0 -60.5 -2.5
t-59 -5.5t-71.5 -8.5t-75 -8.5zM219 936l14 -307q28 5 76.5 6.5t82.5 3t76 15t70 39.5t51.5 79.5t31.5 132.5q-21 62 -123 62q-45 0 -143.5 -14.5t-135.5 -16.5z" />
    <glyph glyph-name="afii10068" unicode="&#x433;" horiz-adv-x="747" 
d="M123 1026q87 7 260.5 26t245.5 25q50 -3 84.5 -37t34.5 -73q0 -26 -20.5 -46t-59.5 -24q-74 6 -225 20.5t-228 20.5q3 -122 25 -395.5t22 -417.5q0 -125 -98 -125q-47 0 -64.5 30t-17.5 83q0 132 6.5 284t18.5 343.5t16 285.5z" />
    <glyph glyph-name="afii10069" unicode="&#x434;" horiz-adv-x="1081" 
d="M106 -262l-90 20q-1 23 -8.5 130t-7.5 155q0 39 6 86h129q10 33 33 102t31.5 96t23 83t20 95.5t10.5 97.5t5 122q0 150 -12 338q110 -6 236.5 -8t205.5 -6.5t164 -18.5q6 -135 13.5 -447t13.5 -448h155v-59q0 -51 3 -147.5t3 -129.5q0 -59 -4 -92l-90 21q-8 28 -15.5 70
t-15.5 93.5t-12 71.5q-116 6 -364.5 24.5t-386.5 24.5zM414 936q-1 -29 -4 -124t-5 -145.5t-11.5 -139.5t-23.5 -148.5t-41 -128t-63 -119.5h439l38 789q-26 1 -145.5 5.5t-183.5 10.5z" />
    <glyph glyph-name="afii10070" unicode="&#x435;" horiz-adv-x="907" 
d="M889 195l18 -89q-86 -33 -260 -71.5t-258 -38.5q-70 0 -125.5 39t-88.5 98t-55 135.5t-30 145t-8 133.5q0 113 24.5 201.5t76.5 157t141 105t211 36.5q107 0 189.5 -69t82.5 -179q0 -45 -18.5 -82.5t-48.5 -63.5t-75 -48t-89 -35t-99.5 -25t-99 -18.5t-95 -14.5
t-79.5 -14q2 -49 5.5 -85t12.5 -81t25.5 -76.5t41.5 -59.5t64 -42.5t90 -14.5q73 0 177 13.5t185 28t85 14.5zM211 623q100 29 232 77t212 86q-15 66 -37.5 95.5t-70.5 29.5q-122 0 -220.5 -82.5t-115.5 -205.5z" />
    <glyph glyph-name="afii10072" unicode="&#x436;" horiz-adv-x="1290" 
d="M575 651q0 297 19 434l90 -32q16 -77 17 -222t4 -180q44 8 79.5 37.5t60 71t47 89.5t45.5 94t50.5 84t68.5 61.5t93 23.5q45 0 113 -22l-9 -70q-12 2 -32 2q-66 0 -116 -43.5t-81 -107t-58 -128.5t-62.5 -116t-78.5 -60q52 -12 92.5 -55t64.5 -98t50 -116.5t50 -112
t64.5 -84t92.5 -33.5q21 0 45 6l6 -88q-46 -11 -69 -11q-55 0 -103 27t-82 70t-64.5 95t-56 104t-50 95t-54 70t-61.5 27q-16 0 -31 -6q5 -75 29 -389q-19 -62 -70 -62q-36 0 -69 29.5t-42 70.5q4 168 4 351q-15 6 -30 6q-32 0 -61.5 -27t-54 -70t-50 -95t-56 -104
t-64.5 -95t-82 -70t-103 -27q-24 0 -70 11l6 88q24 -6 45 -6q52 0 92.5 33.5t64.5 84t50 112t50 116.5t64.5 98t92.5 55q-37 8 -68.5 45.5t-52 88t-47.5 107t-54 104t-72 79t-101 31.5q-21 0 -33 -2l-8 70q59 22 114 22q52 0 93 -23t69 -60.5t51 -83.5t45 -94t44.5 -89
t56 -71.5t73.5 -39.5z" />
    <glyph glyph-name="afii10073" unicode="&#x437;" horiz-adv-x="710" 
d="M201 494l-8 112q6 0 18 -1t18 -1q203 0 203 176q-23 154 -170 154q-55 0 -164 -33l-37 60q39 36 104.5 56.5t135.5 20.5q109 0 183.5 -56.5t74.5 -164.5q0 -66 -25 -128.5t-67 -94.5q51 -11 88.5 -57t55.5 -108.5t18 -131.5q0 -90 -38.5 -169t-114 -129t-171.5 -50
q-28 0 -70.5 9t-86.5 25.5t-75.5 44.5t-31.5 60q0 41 53 41q36 0 94 -33t97 -33q84 0 147.5 73t63.5 165q0 96 -67 145.5t-171 49.5q-39 0 -57 -2z" />
    <glyph glyph-name="afii10074" unicode="&#x438;" horiz-adv-x="954" 
d="M258 166q0 -32 4 -90q-19 -62 -69 -62q-35 0 -68.5 30t-42.5 71q7 165 16 479.5t13 415.5l92 16q24 -127 29.5 -335t15.5 -320q45 67 220.5 297.5t238.5 345.5q46 8 55 8q38 0 52.5 -33.5t19.5 -128.5l38 -823q-19 -62 -69 -62q-35 0 -68.5 30t-42.5 71q2 57 11.5 317.5
t15.5 370.5q-349 -399 -461 -598z" />
    <glyph glyph-name="afii10075" unicode="&#x439;" horiz-adv-x="954" 
d="M264 1243l-14 64q58 -7 94 -7q135 0 254 76q46 -3 78.5 -27.5t32.5 -56.5q0 -18 -8.5 -31t-27 -20.5t-34.5 -12.5t-44 -6.5t-42 -2t-41 -0.5q-139 0 -248 24zM258 166q0 -32 4 -90q-19 -62 -69 -62q-35 0 -68.5 30t-42.5 71q7 165 16 479.5t13 415.5l92 16
q24 -127 29.5 -335t15.5 -320q45 67 220.5 297.5t238.5 345.5q46 8 55 8q38 0 52.5 -33.5t19.5 -128.5l38 -823q-19 -62 -69 -62q-35 0 -68.5 30t-42.5 71q2 57 11.5 317.5t15.5 370.5q-349 -399 -461 -598z" />
    <glyph glyph-name="afii10076" unicode="&#x43a;" horiz-adv-x="804" 
d="M799 49l6 -88q-42 -10 -70 -10q-55 0 -103 27t-82 70t-64.5 94.5t-56 103.5t-50 95t-54 70t-61.5 27q-16 0 -31 -6q5 -74 29 -389q-19 -61 -69 -61q-36 0 -69 29.5t-42 70.5q8 336 8 633q0 209 19 346l90 -33q16 -77 16.5 -221t3.5 -180q51 9 91.5 47.5t65 89t53 108
t56 105t73.5 79t106 31.5q44 0 112 -22l-8 -70q-12 2 -33 2q-66 0 -116 -43.5t-81 -107t-57.5 -128t-62 -115.5t-78.5 -60q61 -15 106 -72t73 -127.5t56 -139t72.5 -115t106.5 -46.5q21 0 45 6z" />
    <glyph glyph-name="afii10077" unicode="&#x43b;" horiz-adv-x="845" 
d="M-131 -180l-33 86q67 27 120 82t86.5 117t57 153.5t35 160.5t17.5 171t7 153.5t1 137.5q0 121 22 145q29 31 310 31q220 0 251 2q0 -36 1 -250t2 -294.5t5.5 -234.5t12.5 -276q-19 -59 -70 -59q-34 0 -65.5 28.5t-40.5 67.5q-2 78 -2 231q0 77 1 230.5t1 230.5
q0 145 -2 217q-85 -14 -167 -16t-116 -6q-6 -55 -8.5 -143.5t-3.5 -165.5t-8.5 -171t-20.5 -172t-43 -157.5t-73.5 -137.5t-114 -101.5t-162.5 -59.5z" />
    <glyph glyph-name="afii10078" unicode="&#x43c;" horiz-adv-x="1206" 
d="M866 985l135 12q97 -263 205 -1005q-36 -8 -67 -8q-30 0 -72 10q-27 110 -66.5 388.5t-68.5 393.5q-105 -172 -264 -588q-16 -2 -37.5 -6t-36.5 -6t-29 -2q-21 0 -51 6q-33 82 -96.5 263.5t-100.5 273.5q-73 -185 -143 -395t-96 -334l-78 22q8 116 52 299t99.5 390.5
t77.5 324.5q23 0 55 -5t48 -5q53 -90 143 -345.5t119 -318.5q42 121 73 205t87 209.5t112 220.5z" />
    <glyph glyph-name="afii10079" unicode="&#x43d;" horiz-adv-x="897" 
d="M680 1014l90 -21l45 -968q-19 -62 -70 -62q-36 0 -68.5 29.5t-41.5 70.5q4 110 16 338v17q-55 4 -166 4q-165 0 -249 10q10 -125 26 -375q-19 -61 -69 -61q-36 0 -69 29.5t-42 70.5q6 99 6 201q0 63 -2 190t-2 191q0 190 12 321l90 -20q33 -344 41 -447q4 0 76.5 -5
t149 -9t127.5 -4q82 0 82 10q0 39 7.5 253t10.5 237z" />
    <glyph glyph-name="afii10080" unicode="&#x43e;" 
d="M82 426q0 61 9.5 136.5t33.5 166t59.5 163.5t94.5 122t131 49q79 0 149 -33.5t119 -89.5t85 -128.5t53.5 -151t17.5 -156.5q0 -70 -11 -141t-38 -145t-67 -132t-105 -97.5t-146 -45.5q-185 24 -285 157t-100 326zM422 958q-44 -5 -80 -53.5t-56.5 -115t-34.5 -146.5
t-19 -141t-5 -105q0 -111 70 -206t156 -95q61 0 111.5 48.5t79 120t43.5 142.5t15 128q0 164 -74 285t-206 138z" />
    <glyph glyph-name="afii10081" unicode="&#x43f;" horiz-adv-x="897" 
d="M96 999l674 -6l45 -968q-19 -62 -70 -62q-36 0 -68.5 29.5t-41.5 70.5q1 22 10.5 387t13.5 435q-55 4 -165 4q-166 0 -250 10q5 -66 9.5 -425t8.5 -417q-19 -61 -69 -61q-36 0 -69 29.5t-42 70.5q6 99 6 201q0 53 -2 172t-2 188q0 204 12 342z" />
    <glyph glyph-name="afii10082" unicode="&#x440;" horiz-adv-x="909" 
d="M106 1053l111 -21q0 -41 2 -61q110 69 223 69q76 0 140.5 -30.5t108.5 -81t75.5 -117t46 -138t14.5 -143.5q0 -54 -4 -105.5t-15 -111t-28.5 -111t-46.5 -100t-67 -82.5t-92.5 -54.5t-120.5 -20.5q-112 0 -205 55q8 -350 14 -520q-19 -62 -69 -62q-35 0 -68.5 30
t-42.5 71zM236 840l6 -645q25 -49 75 -78t109 -29q53 0 95.5 23.5t69 66t45 90.5t27 107t12 106t3.5 97q0 53 -4.5 96.5t-19 91t-38.5 79t-67 52.5t-100 21q-74 0 -137 -21t-76 -57z" />
    <glyph glyph-name="afii10083" unicode="&#x441;" horiz-adv-x="800" 
d="M756 991l-11 -86q-89 13 -143 13q-85 0 -152.5 -31.5t-110 -83t-71 -122t-40 -143t-11.5 -151.5q0 -50 4.5 -90.5t18 -84t36.5 -72.5t62.5 -47.5t93.5 -18.5q89 0 223 35q43 16 68 16t38 -24.5t19 -88.5q-167 -55 -325 -55q-91 0 -156 19t-107 53.5t-66.5 92t-34 125.5
t-9.5 163q0 110 11 198t41 171t79.5 138t129.5 88t187 33q151 0 226 -47z" />
    <glyph glyph-name="afii10084" unicode="&#x442;" horiz-adv-x="960" 
d="M18 918l-18 88q439 25 844 45q49 -3 83 -37.5t34 -71.5q0 -26 -20.5 -45t-59.5 -23l-375 19q10 -151 11 -437.5t7 -418.5q-20 -60 -69 -60q-34 0 -66 29t-41 68q31 526 58 825z" />
    <glyph glyph-name="afii10085" unicode="&#x443;" horiz-adv-x="874" 
d="M225 -592l-123 70q38 66 65.5 115t55.5 101.5t44.5 85t56 108.5t67.5 130q-85 76 -152 203t-106.5 273t-61.5 280.5t-30 263.5l115 -6q12 -56 34.5 -178t39 -197t45.5 -176t70 -183.5t95 -150.5q279 541 279 877v23q6 -1 22.5 -3t27 -4t27.5 -5.5t36.5 -10.5t41.5 -16
q-22 -142 -60.5 -289.5t-94.5 -293.5t-109.5 -270.5t-128.5 -271.5t-127 -242.5t-129 -232.5z" />
    <glyph glyph-name="afii10086" unicode="&#x444;" horiz-adv-x="1114" 
d="M596 -557l-102 18q-9 178 -9 533q-205 0 -324.5 113t-119.5 307q0 86 18.5 171t57.5 162t93 136.5t131 94.5t167 36q-2 45 -2 110t8 213v17q26 20 66 20q41 0 79 -20q-12 -188 -12 -289v-57h15q81 0 158.5 -57t132 -145t87.5 -196t33 -209q0 -172 -122 -292.5
t-298 -120.5q-25 0 -37 2q-4 -130 -10 -270.5t-10 -276.5zM485 123q1 98 16 294t15 296q0 106 -10 180q-28 4 -39 4q-89 0 -161 -69.5t-109 -172.5t-37 -213q0 -90 26 -161t86.5 -117.5t147.5 -46.5q30 0 65 6zM641 872l-25 -753h19q79 0 138.5 25t94 68.5t51.5 97t17 116.5
q0 102 -39.5 203t-108.5 169.5t-147 73.5z" />
    <glyph glyph-name="afii10087" unicode="&#x445;" horiz-adv-x="729" 
d="M86 -49l-86 45q13 32 29 67.5t37.5 77t38 72t44.5 79t41 70.5t44 74t38 64q-55 76 -107.5 175t-77.5 158.5t-79 192.5h88q78 -161 250 -405q29 42 79.5 129.5t97 151t106.5 112.5q71 -42 71 -94q0 -30 -14 -58q-55 -66 -139.5 -209.5t-102.5 -171.5q71 -98 107 -150
t89 -136.5t89 -157.5q0 -38 -19 -58t-48 -20t-58.5 18.5t-46.5 49.5q-38 124 -188 340q-35 -58 -140 -204t-143 -212z" />
    <glyph glyph-name="afii10088" unicode="&#x446;" horiz-adv-x="972" 
d="M82 -6q5 109 7.5 508.5t16.5 556.5l91 -21q14 -159 20 -504.5t8 -392.5q31 2 99 2q48 0 141 -2t131 -2h55q5 122 14 436t17 465l90 -20q7 -156 8 -494t2 -387h150q-2 -57 -10 -206t-11 -224l-96 17l-39 268q-258 -8 -389 -8q-169 0 -305 8z" />
    <glyph glyph-name="afii10089" unicode="&#x447;" horiz-adv-x="839" 
d="M604 1063l82 24q17 -57 30 -305t23 -489t19 -277q-19 -61 -70 -61q-36 0 -68.5 29.5t-41.5 70.5q4 118 8 346q-95 -24 -172 -24q-84 0 -150 28.5t-107 75.5t-68 112.5t-37.5 133t-10.5 143.5q0 89 18 199l91 -20l5.5 -77t6 -80t7.5 -76t12.5 -74t19.5 -64t29.5 -57
t41 -42t56.5 -29t73 -9q75 0 185 37q0 52 10 230.5t10 223.5q0 27 -2 31z" />
    <glyph glyph-name="afii10090" unicode="&#x448;" horiz-adv-x="1183" 
d="M999 1040l91 -20q6 -133 6 -651q0 -258 6 -375q-152 -4 -395 -4q-471 0 -625 10q6 110 14 504t23 567l90 -20q15 -168 21.5 -513t9.5 -415q44 3 159 3.5t150 2.5q4 70 4 221q0 58 -1 178.5t-1 180.5q0 217 12 344l90 -21q14 -160 21 -508t8 -387q205 0 287 2
q5 124 13.5 437.5t16.5 463.5z" />
    <glyph glyph-name="afii10091" unicode="&#x449;" horiz-adv-x="1290" 
d="M1229 -291l-96 17l-39 268q-160 -4 -396 -4q-462 0 -616 10q6 110 14 504t23 567l90 -20q15 -168 21.5 -513t9.5 -415q44 3 159 3.5t150 2.5q2 178 2 580q0 217 12 344l90 -21q14 -160 21 -509t8 -388q39 2 143 2q103 0 144 2q5 124 13.5 437.5t16.5 463.5l91 -20
q7 -156 8 -495t2 -388h149q-2 -58 -9.5 -206.5t-10.5 -221.5z" />
    <glyph glyph-name="afii10092" unicode="&#x44a;" horiz-adv-x="1024" 
d="M20 905l-20 90q18 1 59 3.5t83 4t81 1.5q98 0 176 -11q5 -58 35 -346q83 25 152 25q88 0 164.5 -34t126 -88.5t78 -123t28.5 -137.5q0 -139 -108 -227.5t-259 -88.5q-33 0 -91.5 4t-132 20t-77.5 42q2 39 2 119q0 93 -7 321t-7 373zM451 524l-17 -401q80 -29 152 -29
q114 0 182 67t68 156t-72.5 153.5t-206.5 64.5q-35 0 -106 -11z" />
    <glyph glyph-name="afii10093" unicode="&#x44b;" horiz-adv-x="1089" 
d="M88 1014l90 -21q5 -58 35 -346q83 25 152 25q88 0 164.5 -34t126 -88.5t78 -123t28.5 -137.5q0 -141 -103 -228.5t-264 -87.5q-104 0 -202.5 18.5t-98.5 45.5q0 122 -6 376t-6 388q0 111 6 213zM229 524l-16 -401q80 -29 152 -29q114 0 181.5 67t67.5 156t-72 153.5
t-206 64.5q-36 0 -107 -11zM854 1020l90 -21q26 -284 64 -958q-19 -61 -70 -61q-36 0 -69 29.5t-42 70.5q5 115 9 439t18 501z" />
    <glyph glyph-name="afii10094" unicode="&#x44c;" horiz-adv-x="802" 
d="M88 1014l90 -21q5 -58 35 -346q83 25 152 25q88 0 164.5 -34t126 -88.5t78 -123t28.5 -137.5q0 -139 -108 -227.5t-259 -88.5q-33 0 -91.5 4t-132 20t-77.5 42q0 122 -6 375t-6 387q0 111 6 213zM229 524l-16 -401q80 -29 152 -29q114 0 181.5 67t67.5 156t-72 153.5
t-206 64.5q-36 0 -107 -11z" />
    <glyph glyph-name="afii10095" unicode="&#x44d;" horiz-adv-x="780" 
d="M561 401l-29 5q-123 15 -180 25t-153 38l6 98q310 -17 338 -18q-19 85 -43 145.5t-65 114.5t-105 81.5t-152 27.5q-54 0 -143 -13l-10 86q75 47 225 47q107 0 187 -33t129.5 -88t79.5 -138t41 -171t11 -198q0 -74 -5.5 -129t-19.5 -109.5t-40.5 -91.5t-67 -66t-100.5 -43
t-139 -14q-159 0 -326 55q6 64 19 88.5t38 24.5q47 0 153 -25.5t138 -25.5q215 0 215 280q0 31 -2 47z" />
    <glyph glyph-name="afii10096" unicode="&#x44e;" horiz-adv-x="1234" 
d="M248 399l10 -372q-20 -60 -70 -60q-34 0 -65.5 28.5t-40.5 67.5l43 883l88 -18q13 -240 20 -410q10 2 33 2q27 0 80.5 -5t79.5 -5q57 0 104 16q6 64 12.5 113t18.5 104.5t27.5 95.5t39.5 79t54.5 63t73 38.5t94.5 14.5q53 0 93.5 -10.5t81.5 -44t68 -89.5t43.5 -153
t16.5 -229q0 -50 -11.5 -113.5t-39.5 -137t-68 -134t-105 -101t-143 -40.5q-120 0 -195 66.5t-75 193.5q0 73 2 114zM1020 641q0 40 -7.5 84.5t-24 92.5t-50 79t-78.5 31q-55 0 -97.5 -46t-65 -117.5t-33.5 -143t-11 -136.5q0 -147 17 -225.5t45 -103.5t78 -25q55 0 100 53
t71.5 133.5t41 165.5t14.5 158z" />
    <glyph glyph-name="afii10097" unicode="&#x44f;" horiz-adv-x="880" 
d="M768 1038l31 -1075q-19 -59 -70 -59q-34 0 -65.5 28.5t-40.5 67.5l18 434q-78 -52 -172 -55q-39 -127 -81.5 -211.5t-107.5 -151.5t-152.5 -110.5t-217.5 -79.5l-33 86q371 93 426 494q-96 39 -158.5 121t-62.5 190q0 89 20.5 152t55.5 101.5t94 60t123.5 29t156.5 7.5
q126 0 236 -29zM657 602l-10 316q-70 22 -205 22q-44 0 -82.5 -9.5t-73 -29t-55 -56.5t-20.5 -87q0 -108 85.5 -185t186.5 -77q120 0 174 106z" />
    <glyph glyph-name="afii10071" unicode="&#x451;" horiz-adv-x="907" 
d="M889 195l18 -89q-86 -33 -260 -71.5t-258 -38.5q-70 0 -125.5 39t-88.5 98t-55 135.5t-30 145t-8 133.5q0 113 24.5 201.5t76.5 157t141 105t211 36.5q107 0 189.5 -69t82.5 -179q0 -45 -18.5 -82.5t-48.5 -63.5t-75 -48t-89 -35t-99.5 -25t-99 -18.5t-95 -14.5
t-79.5 -14q4 -51 7.5 -79.5t11 -72t17.5 -68.5t28 -55t41 -46t57 -27t77 -11q73 0 177 13.5t185 28t85 14.5zM211 623q100 29 232 77t212 86q-15 66 -37.5 95.5t-70.5 29.5q-122 0 -220.5 -82.5t-115.5 -205.5zM231 1434q55 0 91 -47t36 -107q0 -43 -20.5 -70.5t-56.5 -27.5
q-56 0 -88.5 48t-32.5 105q0 43 19 71t52 28zM643 1434q55 0 91 -47t36 -107q0 -42 -21 -70t-57 -28q-56 0 -88.5 48t-32.5 105q0 43 19.5 71t52.5 28z" />
    <glyph glyph-name="afii10099" unicode="&#x452;" horiz-adv-x="1032" 
d="M20 1151l-20 90l227 21q3 90 9 178l104 -25l6 -143l156 14q50 -3 84.5 -37t34.5 -73q0 -26 -20.5 -46t-59.5 -24l-193 16q4 -241 8 -319q109 115 258 115q136 0 236 -96.5t100 -256.5v-258q0 -111 -12.5 -189.5t-33.5 -126.5t-57.5 -75.5t-76.5 -37t-98 -9.5
q-43 0 -86 14v74q68 15 111 39t65.5 63t30.5 83.5t8 113.5q0 4 -1 30q-5 114 -12 304q-16 96 -64 140t-116 44q-67 0 -133 -37t-98 -88q6 -126 7.5 -328.5t6.5 -314.5q-50 -8 -82 -8q-49 0 -84 12q4 98 4 309q0 97 -2 360t-2 454z" />
    <glyph glyph-name="afii10100" unicode="&#x453;" horiz-adv-x="747" 
d="M123 1026q87 7 260.5 26t245.5 25q50 -3 84.5 -37t34.5 -73q0 -26 -20.5 -46t-59.5 -24q-74 6 -225 20.5t-228 20.5q3 -122 25 -395.5t22 -417.5q0 -125 -98 -125q-47 0 -64.5 30t-17.5 83q0 132 6.5 284t18.5 343.5t16 285.5zM362 1145l-59 55q5 7 49 52.5t91.5 100.5
t64.5 93q12 8 37 8q37 0 70.5 -14t33.5 -37q0 -48 -107 -137.5t-180 -120.5z" />
    <glyph glyph-name="afii10101" unicode="&#x454;" horiz-adv-x="800" 
d="M248 406l-29 -5q-2 -16 -2 -47q0 -280 215 -280q32 0 138 25.5t153 25.5q25 0 38 -24.5t19 -88.5q-167 -55 -325 -55q-95 0 -162.5 21.5t-108 58t-64 96.5t-31 123.5t-7.5 153.5q0 110 11 198t41 171t79.5 138t129.5 88t187 33q151 0 226 -47l-11 -86q-89 13 -143 13
q-71 0 -126.5 -19.5t-93 -51t-66.5 -81t-46 -100t-32 -117.5q26 1 337 18l7 -98q-95 -28 -152.5 -38t-181.5 -25z" />
    <glyph glyph-name="afii10102" unicode="&#x455;" horiz-adv-x="776" 
d="M698 965l-20 -80q-189 80 -301 80q-96 0 -135 -30.5t-39 -123.5q0 -56 29.5 -97.5t76.5 -67t103.5 -47.5t113 -46.5t103.5 -55.5t76.5 -83.5t29.5 -122.5q0 -82 -40 -155t-118.5 -120.5t-179.5 -48.5q-110 0 -205 46.5t-151 115.5l57 61q28 -11 73 -32t66 -29t59.5 -15.5
t82.5 -7.5q95 0 154 42t59 118q0 50 -28.5 85.5t-74 57.5t-100.5 41.5t-110 45.5t-100.5 60.5t-74 95t-28.5 141.5q0 120 64.5 200t183.5 80q37 0 76.5 -6.5t86.5 -21.5t71.5 -24t78.5 -31t61 -25z" />
    <glyph glyph-name="afii10103" unicode="&#x456;" horiz-adv-x="362" 
d="M127 1028l90 -20q16 -166 28.5 -520.5t16.5 -430.5q-19 -61 -69 -61q-36 0 -69 29.5t-42 70.5q4 74 16.5 422t28.5 510zM154 1386q55 0 91 -46.5t36 -106.5q0 -42 -21 -70t-57 -28q-56 0 -88.5 46t-32.5 107q0 42 19.5 70t52.5 28z" />
    <glyph glyph-name="afii10104" unicode="&#x457;" horiz-adv-x="423" 
d="M168 1028l90 -20q16 -166 28.5 -520.5t16.5 -430.5q-19 -61 -70 -61q-36 0 -68.5 29.5t-41.5 70.5q4 74 16.5 422t28.5 510zM338 1386q55 0 91 -46.5t36 -106.5q0 -42 -21 -70t-57 -28q-56 0 -88.5 46t-32.5 107q0 42 19.5 70t52.5 28zM31 1386q55 0 91 -46.5t36 -106.5
q0 -42 -21 -70t-57 -28q-56 0 -88.5 46t-32.5 107q0 42 19.5 70t52.5 28z" />
    <glyph glyph-name="afii10105" unicode="&#x458;" horiz-adv-x="333" 
d="M-164 -375v74q52 11 93.5 37.5t69.5 59.5t47.5 81.5t30 92.5t16.5 104.5t7.5 105.5t1.5 107q0 82 -2.5 290.5t-3.5 380.5q4 44 22.5 66.5t43.5 22.5q31 0 57 -30t29 -77q0 -54 1 -168.5t1 -177.5q0 -6 1 -44.5t1 -70.5q0 -225 -14.5 -382t-39 -252t-68 -147.5t-91 -69.5
t-117.5 -17q-43 0 -86 14zM123 1391q55 0 91 -47t36 -107q0 -42 -21 -70t-57 -28q-56 0 -88.5 46t-32.5 107q0 42 19.5 70.5t52.5 28.5z" />
    <glyph glyph-name="afii10106" unicode="&#x459;" horiz-adv-x="1400" 
d="M-49 -180l-33 86q67 27 120 82t86.5 117t57 153.5t35 160.5t17.5 171t7 153.5t1 137.5q0 121 22 145q29 31 309 31q221 0 252 2v-406q73 21 138 21q88 0 164.5 -34t126 -88.5t78 -123t28.5 -137.5q0 -139 -108 -227.5t-259 -88.5q-67 0 -112 3t-106.5 18.5t-104.5 44.5
q-2 59 -2 178q0 57 1 187t1 206q0 56 -1 169t-1 169q-85 -14 -167 -16t-116 -6q-6 -55 -8.5 -143.5t-3.5 -165.5t-8.5 -171t-20.5 -172t-43 -157.5t-73.5 -137.5t-114 -101.5t-162.5 -59.5zM827 526q4 -253 13 -411q58 -19 123 -19q114 0 181.5 67t67.5 156t-72 153.5
t-206 64.5q-36 0 -107 -11z" />
    <glyph glyph-name="afii10107" unicode="&#x45a;" horiz-adv-x="1376" 
d="M770 993v-12q5 -55 7.5 -191t8.5 -196q80 24 152 24q118 0 210 -52.5t139.5 -134.5t47.5 -175q0 -92 -51.5 -160t-133.5 -101.5t-181 -33.5q-26 0 -73.5 2.5t-117.5 14t-96 28.5q-39 13 -47 57l16 396q-55 4 -166 4q-165 0 -249 10q6 -74 15.5 -236t10.5 -180
q-19 -61 -69 -61q-36 0 -69 29.5t-42 70.5q6 99 6 201q0 63 -2 190t-2 191q0 190 12 321l90 -20q5 -52 19.5 -186.5t21.5 -219.5q234 -12 353 -12q12 0 27 -0.5t23.5 -0.5h16.5t11.5 1.5t3.5 3.5q0 38 7.5 232t10.5 217zM786 471l5 -362q72 -27 147 -27q116 0 183 58t67 145
q0 86 -71.5 141t-207.5 55q-58 0 -123 -10z" />
    <glyph glyph-name="afii10108" unicode="&#x45b;" horiz-adv-x="1032" 
d="M20 1151l-20 90l227 21q3 90 9 178l104 -25l6 -143l156 14q50 -3 84.5 -37t34.5 -73q0 -26 -20.5 -46t-59.5 -24l-193 16q4 -241 8 -319q109 115 258 115q136 0 236 -96.5t100 -256.5v-555q-27 -12 -67 -12q-44 0 -80 8q0 17 1 49.5t1 48.5q0 79 -6 219t-6 267
q-16 95 -66 139.5t-119 44.5q-67 0 -133 -37t-98 -88q6 -126 7.5 -328.5t6.5 -314.5q-50 -8 -82 -8q-49 0 -84 12q4 98 4 309q0 97 -2 360t-2 454z" />
    <glyph glyph-name="afii10109" unicode="&#x45c;" horiz-adv-x="804" 
d="M799 49l6 -88q-42 -10 -70 -10q-55 0 -103 27t-82 70t-64.5 94.5t-56 103.5t-50 95t-54 70t-61.5 27q-16 0 -31 -6q5 -74 29 -389q-19 -61 -69 -61q-36 0 -69 29.5t-42 70.5q8 336 8 633q0 209 19 346l90 -33q16 -77 16.5 -221t3.5 -180q51 9 91.5 47.5t65 89t53 108
t56 105t73.5 79t106 31.5q44 0 112 -22l-8 -70q-12 2 -33 2q-66 0 -116 -43.5t-81 -107t-57.5 -128t-62 -115.5t-78.5 -60q61 -15 106 -72t73 -127.5t56 -139t72.5 -115t106.5 -46.5q21 0 45 6zM336 1145l-60 55q5 7 49 52.5t91.5 100.5t64.5 93q12 8 37 8q37 0 71 -14
t34 -37q0 -48 -107 -137.5t-180 -120.5z" />
    <glyph glyph-name="afii10110" unicode="&#x45e;" horiz-adv-x="874" 
d="M225 -592l-123 70q38 66 65.5 115t55.5 101.5t44.5 85t56 108.5t67.5 130q-85 76 -152 203t-106.5 273t-61.5 280.5t-30 263.5l115 -6q12 -56 34.5 -178t39 -197t45.5 -176t70 -183.5t95 -150.5q279 541 279 877v23q6 -1 22.5 -3t27 -4t27.5 -5.5t36.5 -10.5t41.5 -16
q-22 -142 -60.5 -289.5t-94.5 -293.5t-109.5 -270.5t-128.5 -271.5t-127 -242.5t-129 -232.5zM223 1192l-14 63q49 -6 94 -6q135 0 254 76q46 -3 78.5 -27.5t32.5 -56.5q0 -18 -8.5 -31t-26.5 -21t-35 -12.5t-44 -6.5t-42 -2.5t-41 -0.5q-134 0 -248 25z" />
    <glyph glyph-name="afii10193" unicode="&#x45f;" horiz-adv-x="897" 
d="M479 -293l-90 21l-18 239h-275q-12 138 -12 338q0 69 2 188.5t2 172.5q0 101 -6 200q9 41 42.5 71t68.5 30q50 0 69 -62q-4 -58 -8.5 -413.5t-9.5 -421.5q84 8 250 8h165q-4 70 -13.5 435t-10.5 386q9 41 41.5 70.5t68.5 29.5q51 0 70 -61l-45 -969h-272z" />
    <glyph glyph-name="afii10050" unicode="&#x490;" horiz-adv-x="860" 
d="M709 1677l90 21l39 -266h2l20 -91q-88 -7 -307.5 -19t-308.5 -19q6 -189 8.5 -636.5t9.5 -654.5q-19 -61 -69 -61q-36 0 -69 29.5t-42 70.5q16 172 21 399.5t8 780.5q0 33 1 103.5t1 109.5q108 -6 217 -6q44 0 132 1t132 1h82z" />
    <glyph glyph-name="afii10098" unicode="&#x491;" horiz-adv-x="747" 
d="M600 1309l90 20q12 -90 23 -160t17 -104t10.5 -56t6 -29.5t1.5 -12.5q0 -26 -20.5 -46t-59.5 -24q-74 6 -225 20.5t-228 20.5q3 -122 25 -395.5t22 -417.5q0 -125 -98 -125q-47 0 -64.5 30t-17.5 83q0 132 6.5 284t18.5 343.5t16 285.5q83 7 248 24.5t196 20.5z" />
    <glyph glyph-name="endash" unicode="&#x2013;" horiz-adv-x="1288" 
d="M55 604l-14 109q269 4 376.5 6t272.5 6t455 10q45 -3 73.5 -26.5t28.5 -51.5q0 -23 -22.5 -41t-65.5 -22q-262 0 -503 5t-601 5z" />
    <glyph glyph-name="emdash" unicode="&#x2014;" horiz-adv-x="1843" 
d="M55 604l-14 109q222 3 734 5.5t925 10.5q45 -3 73.5 -26.5t28.5 -51.5q0 -23 -22.5 -41t-65.5 -22q-262 0 -780.5 8t-878.5 8z" />
    <glyph glyph-name="quoteleft" unicode="&#x2018;" horiz-adv-x="335" 
d="M293 1573l2 -64q-73 -26 -108 -57.5t-35 -77.5q0 -15 8 -47q28 4 39 4q38 0 60 -51.5t22 -97.5q0 -42 -19.5 -70.5t-52.5 -28.5q-53 0 -93 47t-57.5 105.5t-17.5 112.5q0 95 63 157t189 68z" />
    <glyph glyph-name="quoteright" unicode="&#x2019;" horiz-adv-x="335" 
d="M43 1083l-2 64q73 26 108 57.5t35 77.5q0 15 -8 47q-28 -4 -39 -4q-38 0 -60 52t-22 98q0 42 19.5 70t52.5 28q53 0 93 -46.5t57.5 -105t17.5 -112.5q0 -95 -63 -157.5t-189 -68.5z" />
    <glyph glyph-name="quotesinglbase" unicode="&#x201a;" horiz-adv-x="417" 
d="M84 -240l-2 64q73 26 108 57.5t35 77.5q0 15 -8 47q-28 -4 -39 -4q-38 0 -60 52t-22 98q0 42 19.5 70t52.5 28q53 0 93 -46.5t57.5 -105t17.5 -112.5q0 -95 -63 -157.5t-189 -68.5z" />
    <glyph glyph-name="quotedblleft" unicode="&#x201c;" horiz-adv-x="716" 
d="M674 1573l2 -64q-73 -26 -108.5 -57.5t-35.5 -77.5q0 -11 9 -47q28 4 39 4q38 0 60 -51.5t22 -97.5q0 -42 -19.5 -70.5t-52.5 -28.5q-53 0 -93 47t-57.5 105.5t-17.5 112.5q0 95 63 157t189 68zM293 1585l2 -63q-73 -26 -108 -58t-35 -78q0 -15 8 -47q28 4 39 4
q38 0 60 -51.5t22 -97.5q0 -42 -19.5 -70t-52.5 -28q-53 0 -93 46.5t-57.5 105t-17.5 112.5q0 95 63 157t189 68z" />
    <glyph glyph-name="quotedblright" unicode="&#x201d;" horiz-adv-x="716" 
d="M43 1096l-2 63q73 26 108 57.5t35 77.5q0 15 -8 47q-28 -4 -39 -4q-38 0 -60 52t-22 98q0 42 19.5 70t52.5 28q53 0 93 -46.5t57.5 -105t17.5 -112.5q0 -95 -63 -157t-189 -68zM424 1083l-2 64q73 26 108 57.5t35 77.5q0 15 -8 47q-28 -4 -39 -4q-38 0 -60 52t-22 98
q0 42 19.5 70t52.5 28q53 0 93 -46.5t57.5 -105t17.5 -112.5q0 -95 -63 -157.5t-189 -68.5z" />
    <glyph glyph-name="quotedblbase" unicode="&#x201e;" horiz-adv-x="798" 
d="M84 -240l-2 64q73 26 108 57.5t35 77.5q0 15 -8 47q-28 -4 -39 -4q-38 0 -60 52t-22 98q0 42 19.5 70t52.5 28q53 0 93 -46.5t57.5 -105t17.5 -112.5q0 -95 -63 -157.5t-189 -68.5zM465 -252l-2 64q73 26 108 57.5t35 77.5q0 15 -8 47q-28 -4 -39 -4q-38 0 -60 51.5
t-22 97.5q0 43 19.5 71t52.5 28q53 0 93 -47t57.5 -105.5t17.5 -112.5q0 -95 -63 -157t-189 -68z" />
    <glyph glyph-name="dagger" unicode="&#x2020;" horiz-adv-x="702" 
d="M61 903l-20 90l258 23v24q4 250 4 435l90 -21q8 -196 13 -428l137 12q50 -3 84.5 -37t34.5 -73q0 -26 -20.5 -46t-59.5 -24l-174 14v-108q0 -240 15 -607t15 -395q-19 -61 -69 -61q-36 0 -69 29.5t-42 70.5q0 7 0.5 20.5l2 54t3.5 99.5q2 58 14 389t17 519z" />
    <glyph glyph-name="daggerdbl" unicode="&#x2021;" horiz-adv-x="702" 
d="M61 903l-20 90l258 23v57q4 254 4 402l90 -21q8 -196 13 -428l137 12q50 -3 84.5 -37t34.5 -73q0 -26 -20.5 -46t-59.5 -24l-166 14v-536l225 -19l21 -90l-244 -22q6 -293 20 -443q-19 -61 -69 -61q-36 0 -69 29.5t-42 70.5q0 7 0.5 20.5l2 54t3.5 99.5q5 152 8 218
l-112 -11q-50 3 -84.5 37.5t-34.5 73.5q0 26 20.5 45.5t59.5 23.5l158 -14q11 325 16 535z" />
    <glyph glyph-name="bullet" unicode="&#x2022;" horiz-adv-x="628" 
d="M303 496q-71 0 -123 35.5t-75 87.5t-23 112q0 26 5 54.5t19.5 62t36 59t58.5 43t84 17.5q76 0 130 -22.5t81.5 -61.5t39 -79.5t11.5 -86.5q0 -30 -14 -66t-41.5 -72t-77 -59.5t-111.5 -23.5z" />
    <glyph glyph-name="ellipsis" unicode="&#x2026;" horiz-adv-x="1218" 
d="M154 250q55 0 91 -47t36 -107q0 -42 -21 -70t-57 -28q-55 0 -88 46.5t-33 107.5q0 42 19.5 70t52.5 28zM582 250q55 0 91 -47t36 -107q0 -42 -21 -70t-57 -28q-55 0 -88 46.5t-33 107.5q0 42 19.5 70t52.5 28zM1010 250q55 0 91 -47t36 -107q0 -42 -21 -70t-57 -28
q-55 0 -88 46.5t-33 107.5q0 42 19.5 70t52.5 28z" />
    <glyph glyph-name="perthousand" unicode="&#x2030;" horiz-adv-x="2025" 
d="M1090 1546l106 -71q-37 -82 -238 -404.5t-400.5 -646.5t-238.5 -420q-28 -35 -69 -35q-38 0 -68 32t-30 73q0 23 12 47q93 115 442 648t484 777zM707 270q0 82 45.5 162t123.5 132t164 52q119 0 214.5 -99t95.5 -222q0 -135 -88 -239.5t-222 -104.5q-83 0 -158.5 38.5
t-125 113t-49.5 167.5zM1038 485q-78 0 -143.5 -63t-65.5 -143q0 -81 62.5 -137t146.5 -56q82 0 138.5 60.5t56.5 146.5q0 73 -59.5 132.5t-135.5 59.5zM0 1247q0 82 45.5 162.5t124 132t164.5 51.5q118 0 213.5 -99t95.5 -222q0 -135 -87.5 -239.5t-221.5 -104.5
q-83 0 -159 38.5t-125.5 113t-49.5 167.5zM332 1462q-78 0 -143.5 -63.5t-65.5 -143.5q0 -81 62 -136.5t147 -55.5q82 0 138 60.5t56 146.5q0 73 -59 132.5t-135 59.5zM1382 270q0 82 45.5 162.5t124 132t164.5 51.5q118 0 213.5 -99t95.5 -222q0 -135 -87.5 -239.5
t-221.5 -104.5q-83 0 -159 38.5t-125.5 113t-49.5 167.5zM1714 485q-78 0 -143.5 -63t-65.5 -143q0 -81 62.5 -137t146.5 -56q82 0 138.5 60.5t56.5 146.5q0 73 -59.5 132.5t-135.5 59.5z" />
    <glyph glyph-name="guilsinglleft" unicode="&#x2039;" horiz-adv-x="954" 
d="M883 123l6 -129q-130 58 -240 120.5t-304.5 182t-344.5 207.5q0 80 16 151q70 25 222 86t322 123.5t364 124.5l30 -115q-214 -90 -474 -204.5t-279 -122.5q77 -58 218 -145.5t287.5 -173.5t176.5 -105z" />
    <glyph glyph-name="guilsinglright" unicode="&#x203a;" horiz-adv-x="954" 
d="M66 -6l6 129q30 19 176.5 105t287.5 173.5t218 145.5q-12 5 -275.5 120.5t-478.5 206.5l31 115q194 -62 364 -124.5t321.5 -123t221.5 -86.5q16 -71 16 -151q-152 -89 -345 -208t-303.5 -181.5t-239.5 -120.5z" />
    <glyph glyph-name="franc" unicode="&#x20a3;" horiz-adv-x="978" 
d="M326 -12l-183 12q17 197 19 362l-142 13l5 125l141 -4q1 72 2 247.5t2 269.5t7 223t16 220q66 -6 360.5 -10t384.5 -19l20 -90q-90 -16 -358 -37.5t-285 -23.5q2 -62 10 -177.5t9 -203.5q69 -8 250 -23.5t225 -19.5l20 -90q-12 -1 -140.5 -14t-211.5 -19.5t-141 -7.5
l-8 -227q32 0 142.5 -3t145.5 -2.5t150 3.5q39 -4 59.5 -24t20.5 -46q0 -37 -33 -62t-86 -28l-395 22q-6 -199 -6 -336v-30z" />
    <glyph glyph-name="peseta" unicode="&#x20a7;" horiz-adv-x="2209" 
d="M2089 797l-16 -86q-51 22 -80 33t-75 21.5t-87 10.5q-76 0 -104.5 -21t-28.5 -85q0 -46 24.5 -80.5t63.5 -56t86 -39.5t94 -38.5t86 -46.5t63.5 -69.5t24.5 -101.5q0 -117 -85 -193t-216 -78q-129 0 -231 74q-49 -29 -104 -45t-142 -16q-63 0 -109.5 23.5t-75 64
t-45.5 104t-23.5 134.5t-6.5 165q0 44 1 119.5t1 103.5q-13 -1 -82.5 -1t-93.5 -1q-45 -125 -143 -197.5t-250 -72.5q-45 0 -93.5 4t-112.5 11t-83 9q4 -146 16 -454q-19 -62 -69 -62q-35 0 -68.5 30t-42.5 71q5 156 12.5 646.5t20.5 758.5l90 24q0 -63 2 -71q54 35 140 55
t179 20q222 0 332.5 -139.5t110.5 -388.5q0 -56 -11 -131q19 -4 75 -0.5t77 2.5q8 184 14 276l97 -16l4 -254q44 -3 131 -6t131 -6l16 -76q-46 -3 -139 -17.5t-139 -17.5q2 -51 4 -121.5t3.5 -110.5t4 -93.5t7 -83t12 -65.5t19 -54.5t28 -36t39 -24.5t51.5 -7
q37 0 99.5 17.5t96.5 42.5q23 -9 61 -26.5t55.5 -24t49.5 -13t68 -6.5q79 0 128.5 34.5t49.5 98.5q0 36 -18.5 63.5t-48.5 43.5t-69 32.5t-79 30t-79 36t-69 50.5t-48.5 74.5t-18.5 105.5q0 97 63 165.5t164 68.5q125 0 291 -90zM223 1253l17 -622q47 -27 117 -44.5
t137 -17.5q137 0 233 104t96 255q0 105 -43 201t-125 158.5t-182 62.5q-122 0 -250 -97z" />
    <glyph glyph-name="Euro" unicode="&#x20ac;" horiz-adv-x="1179" 
d="M72 465l-21 90q19 1 66.5 4.5t70.5 5.5q-8 55 -8 119v53q-8 0 -27.5 -1t-31.5 -1q-39 4 -59.5 24t-20.5 46q0 39 34.5 73t84.5 37q14 -2 37 -2q12 86 33 160.5t57.5 147.5t84.5 124.5t118 83t155 31.5q116 0 239 -40t212 -99l-80 -92q-153 114 -307 114q-306 0 -359 -438
q328 -11 551 -28l-20 -91q-432 -35 -543 -41q0 -140 4 -165q217 18 481 30q50 -3 84.5 -37t34.5 -73q0 -26 -20.5 -46t-59.5 -24q-125 6 -280 10t-211 6q20 -70 49.5 -132.5t70 -117.5t96.5 -87.5t118 -32.5q78 0 167 33.5t218 99.5q16 -22 26.5 -40.5t23 -46t19.5 -40.5
q-251 -174 -450 -174q-81 0 -153.5 31.5t-126.5 84t-99 124t-74.5 148t-48.5 159.5q-20 1 -135 10z" />
    <glyph glyph-name="afii61352" unicode="&#x2116;" horiz-adv-x="1839" 
d="M82 55l27 1385h106q181 -357 655 -1241v157q0 583 23 1086l113 -23q22 -408 36 -1429q-46 -19 -88 -19q-71 0 -143 41q-121 187 -300.5 547.5t-258.5 499.5q2 -135 3 -495.5t7 -547.5q-19 -61 -69 -61q-36 0 -69 29.5t-42 70.5zM1130 1108q0 82 45.5 162.5t124 132
t164.5 51.5q119 0 214.5 -99t95.5 -222q0 -135 -88 -240t-222 -105q-83 0 -159 39t-125.5 113.5t-49.5 167.5zM1462 1323q-78 0 -143.5 -63.5t-65.5 -143.5q0 -81 62 -136.5t147 -55.5q82 0 138.5 60t56.5 146q0 73 -59.5 133t-135.5 60zM1198 541l-20 90l501 45
q50 -3 84.5 -37.5t34.5 -73.5q0 -26 -20.5 -45.5t-59.5 -23.5z" />
    <glyph glyph-name="trademark" unicode="&#x2122;" horiz-adv-x="1265" 
d="M12 1374l-12 53q87 4 255.5 13.5t250.5 13.5q30 -1 51 -21.5t21 -43.5q0 -16 -13 -27t-37 -14l-225 12q7 -94 8 -267t4 -247q-11 -37 -43 -37q-20 0 -38.5 17t-24.5 42q18 294 35 494zM1061 1415l82 6q10 -28 20.5 -65.5t19 -70t18.5 -83t15.5 -79.5t15 -86t12.5 -76.5
t12 -77.5t10 -64q-24 -6 -41 -6q-22 0 -43 6q-16 65 -40 232t-42 237q-58 -92 -158 -352q-54 -8 -61 -8t-31 4q-20 49 -58.5 158t-60.5 163q-110 -284 -143 -438l-47 14q7 90 66 316t71 293q14 0 33 -3t28 -3q32 -54 86 -207t72 -191q93 259 164 381z" />
    <glyph glyph-name="CR" horiz-adv-x="573" 
 />
    <glyph glyph-name="_0127" horiz-adv-x="946" 
 />
    <glyph glyph-name="exclam.001" horiz-adv-x="372" 
d="M223 344l-90 21q-12 156 -20.5 325.5t-17 395t-13.5 325.5q4 39 24 59.5t46 20.5q39 0 73 -34.5t37 -84.5q-5 -100 -13.5 -465t-25.5 -563zM164 231q55 0 91 -46.5t36 -106.5q0 -42 -21 -70t-57 -28q-56 0 -88.5 46t-32.5 107q0 42 19.5 70t52.5 28z" />
    </font>
</defs>
</svg>
